<?xml version="1.0" encoding="UTF-8" standalone="no"?>
<svg xmlns="http://www.w3.org/2000/svg" xmlns:xlink="http://www.w3.org/1999/xlink" version="1.1">
  <metadata>
Created by FontForge 20201107 at Thu Jun  8 17:17:00 2023
 By 
Copyright 2020 The Plus Jakarta Sans Project Authors (https://github.com/tokotype/PlusJakartaSans)
</metadata>
  <defs>
    <font id="PlusJakartaSans-Bold">
      <glyph glyph-name="fi" unicode="fi" d="M124 0v427h-96v117h96v18q0 62 25.5 105.5t71.5 66.5t109 23q12 0 26.5 -1.5t24.5 -3.5v-113q-10 2 -18.5 2.5t-15.5 0.5q-44 0 -68 -19.5t-24 -60.5v-18h238v-117h-238v-427h-131zM444 0v544h132v-544h-132z"></glyph>
      <glyph glyph-name="fl" unicode="fl" d="M124 0v427h-96v117h96v18q0 62 25.5 105.5t71.5 66.5t109 23q12 0 26.5 -1.5t24.5 -3.5v-113q-10 2 -18.5 2.5t-15.5 0.5q-44 0 -68 -19.5t-24 -60.5v-18h238v-117h-238v-427h-131zM466 0v757h132v-757h-132z"></glyph>
      <glyph glyph-name="f_f" unicode="ff" d="M124 0v427h-96v117h96v18q0 62 25.5 105.5t71.5 66.5t109 23q12 0 26.5 -1.5t24.5 -3.5v-113q-10 2 -18.5 2.5t-15.5 0.5q-44 0 -68 -19.5t-24 -60.5v-18h238v-117h-238v-427h-131zM520 0v427h-96v117h96v18q0 62 25 105.5t71.5 66.5t109.5 23q12 0 26.5 -1.5t23.5 -3.5 v-113q-9 2 -17.5 2.5t-15.5 0.5q-44 0 -68 -19.5t-24 -60.5v-18h120v-117h-120v-427h-131z"></glyph>
      <glyph glyph-name="f_f_i" unicode="ffi" d="M124 0v427h-96v117h96v18q0 62 25.5 105.5t71.5 66.5t109 23q12 0 26.5 -1.5t24.5 -3.5v-113q-10 2 -18.5 2.5t-15.5 0.5q-44 0 -68 -19.5t-24 -60.5v-18h238v-117h-238v-427h-131zM840 0v544h131v-544h-131zM520 0v427h-96v117h96v18q0 62 25 105.5t71.5 66.5t109.5 23 q12 0 26.5 -1.5t23.5 -3.5v-113q-9 2 -17.5 2.5t-15.5 0.5q-44 0 -68 -19.5t-24 -60.5v-18h238v-117h-238v-427h-131z"></glyph>
      <glyph glyph-name="f_f_l" unicode="ffl" d="M124 0v427h-96v117h96v18q0 62 25.5 105.5t71.5 66.5t109 23q12 0 26.5 -1.5t24.5 -3.5v-113q-10 2 -18.5 2.5t-15.5 0.5q-44 0 -68 -19.5t-24 -60.5v-18h238v-117h-238v-427h-131zM862 0v757h131v-757h-131zM520 0v427h-96v117h96v18q0 62 25 105.5t71.5 66.5t109.5 23 q12 0 26.5 -1.5t23.5 -3.5v-113q-9 2 -17.5 2.5t-15.5 0.5q-44 0 -68 -19.5t-24 -60.5v-18h238v-117h-238v-427h-131z"></glyph>
      <glyph glyph-name=".notdef" d="M60 675v70h520v-70h-520zM60 0v70h520v-70h-520zM60 225v70h520v-70h-520zM60 450v70h520v-70h-520z"></glyph>
      <glyph glyph-name=".null"></glyph>
      <glyph glyph-name="nonmarkingreturn"></glyph>
      <glyph glyph-name="CR" unicode="&#13;"></glyph>
      <glyph glyph-name="space" unicode=" "></glyph>
      <glyph glyph-name="exclam" unicode="!" d="M128 226l-9 519h133l-9 -519h-115zM119 0v140h133v-140h-133z"></glyph>
      <glyph glyph-name="quotedbl" unicode="&quot;" d="M113 462l-17 283h118l-16 -283h-85zM300 462l-17 283h118l-16 -283h-85z"></glyph>
      <glyph glyph-name="numbersign" unicode="#" d="M135 0l47 164h-120v115h153l55 188h-120v115h152l47 163h133l-47 -163h165l46 163h133l-47 -163h120v-115h-153l-54 -188h120v-115h-153l-47 -164h-132l46 164h-164l-47 -164h-133zM348 279h165l53 188h-164z"></glyph>
      <glyph glyph-name="dollar" unicode="$" d="M338 -12q-71 0 -131.5 26t-104 72.5t-63.5 108.5l113 49q27 -64 78 -100.5t115 -36.5q36 0 62.5 11.5t41 31.5t14.5 48q0 33 -19.5 54.5t-58.5 33.5l-143 46q-87 27 -131 81t-44 127q0 64 31.5 113t88 76.5t129.5 27.5q67 0 123 -23.5t96.5 -65t60.5 -97.5l-112 -50 q-22 56 -66 86.5t-102 30.5q-34 0 -60 -11.5t-40.5 -32t-14.5 -48.5q0 -31 20 -54.5t61 -36.5l137 -43q89 -29 133.5 -80t44.5 -126q0 -64 -33 -113t-91 -77t-135 -28zM290 -100v945h85v-945h-85z"></glyph>
      <glyph glyph-name="percent" unicode="%" d="M153 0l604 745h140l-604 -745h-140zM270 367q-56 0 -100.5 26.5t-70.5 70.5t-26 98t26 98.5t70.5 70.5t100.5 26q55 0 99 -26t70 -70.5t26 -98.5t-26 -98t-70 -70.5t-99 -26.5zM269 468q30 0 50 13.5t30.5 35t10.5 45.5q0 25 -10.5 46t-30.5 35t-50 14q-28 0 -48.5 -14 t-31.5 -35.5t-11 -45.5q0 -23 11 -45t31.5 -35.5t48.5 -13.5zM777 -12q-55 0 -99.5 26.5t-70.5 70.5t-26 98t26 98.5t70.5 70.5t99.5 26q56 0 100 -26t70 -70.5t26 -98.5t-26 -98t-70 -70.5t-100 -26.5zM777 89q29 0 49.5 13.5t31 35t10.5 45.5q0 25 -10.5 46t-31 35 t-49.5 14q-28 0 -48.5 -14t-31.5 -35.5t-11 -45.5q0 -23 11 -45t31.5 -35.5t48.5 -13.5z"></glyph>
      <glyph glyph-name="ampersand" unicode="&amp;" d="M308 -12q-69 0 -121 25t-81.5 70.5t-29.5 106.5q0 51 18.5 88.5t45.5 64t53.5 43.5t44.5 27l65 35q32 17 58.5 34.5t42.5 39t16 50.5q0 33 -21.5 55.5t-54.5 22.5q-32 0 -54.5 -22.5t-22.5 -56.5q0 -25 11.5 -49t27.5 -44.5t31 -36.5l395 -441h-157l-333 365 q-23 25 -46 54.5t-38 65.5t-15 80q0 58 27.5 101.5t73 67t99.5 23.5q55 0 99.5 -24t71 -66t26.5 -96q0 -55 -25.5 -93.5t-61 -65t-67.5 -44.5l-67 -40q-22 -12 -46.5 -30.5t-41.5 -44t-17 -61.5q0 -43 26.5 -67.5t72.5 -24.5q28 0 50 9.5t39 24t29 31t22 30.5l117 170h137 l-135 -210q-15 -25 -37 -54t-53 -54.5t-73.5 -42t-100.5 -16.5z"></glyph>
      <glyph glyph-name="quotesingle" unicode="'" d="M113 462l-17 283h118l-16 -283h-85z"></glyph>
      <glyph glyph-name="parenleft" unicode="(" d="M233 -170q-84 98 -126.5 213t-42.5 245t42 245t127 212h110q-72 -107 -107.5 -221.5t-35.5 -235.5t36 -236t107 -222h-110z"></glyph>
      <glyph glyph-name="parenright" unicode=")" d="M37 -170q71 107 106.5 222t35.5 236t-35.5 235.5t-106.5 221.5h110q84 -97 126 -212t42 -245t-42 -245t-126 -213h-110z"></glyph>
      <glyph glyph-name="asterisk" unicode="*" d="M196 364l-80 59l73 99l-115 39l31 94l115 -38v128h100v-128l115 38l31 -94l-115 -39l73 -99l-81 -59l-73 99z"></glyph>
      <glyph glyph-name="plus" unicode="+" d="M274 0v194h-194v113h194v193h113v-193h193v-113h-193v-194h-113z"></glyph>
      <glyph glyph-name="comma" unicode="," d="M103 -156v65q33 8 53.5 30.5t25.5 60.5h-59v140h132v-86q0 -88 -38.5 -141t-113.5 -69z"></glyph>
      <glyph glyph-name="hyphen" unicode="-" d="M88 214v115h425v-115h-425z"></glyph>
      <glyph glyph-name="period" unicode="." d="M123 0v140h132v-140h-132z"></glyph>
      <glyph glyph-name="slash" unicode="/" d="M16 -120l332 825h143l-332 -825h-143z"></glyph>
      <glyph glyph-name="zero" unicode="0" d="M354 -12q-89 0 -156 48t-104.5 135t-37.5 202q0 116 37 202t104 134t156 48q91 0 157.5 -48t104.5 -134.5t38 -201.5t-37.5 -201.5t-104.5 -135t-157 -48.5zM355 112q51 0 87 31.5t55.5 90t19.5 139.5t-19.5 139.5t-56 89.5t-88.5 31q-50 0 -86 -31t-55.5 -89.5 t-19.5 -139.5q0 -80 19.5 -138.5t56 -90.5t87.5 -32z"></glyph>
      <glyph glyph-name="one" unicode="1" d="M173 0v629h-144v116h280v-745h-136z"></glyph>
      <glyph glyph-name="two" unicode="2" d="M46 0v103l202 211q60 63 92.5 100.5t45.5 64.5t13 55q0 47 -29.5 74t-75.5 27q-48 0 -83 -27.5t-51 -80.5l-119 37q12 59 49 102.5t90.5 67t113.5 23.5q72 0 126.5 -26t85 -73t30.5 -110q0 -40 -15 -79t-45 -79.5t-78 -90.5l-175 -184h323v-115h-500z"></glyph>
      <glyph glyph-name="three" unicode="3" d="M293 -12q-61 0 -115.5 22.5t-93 64t-52.5 98.5l119 42q18 -51 55 -77.5t87 -26.5q40 0 69.5 15t46.5 43.5t17 67.5t-16.5 66.5t-46.5 42.5t-71 15q-19 0 -39.5 -4t-36.5 -12l-31 65l193 220h-304v115h457v-107l-194 -227l2 51q67 -1 117 -29t78 -77t28 -115 q0 -72 -35 -129.5t-96 -90.5t-138 -33z"></glyph>
      <glyph glyph-name="four" unicode="4" d="M378 0v164h-342v114l334 467h142v-467h109v-114h-109v-164h-134zM136 229l-24 49h266v360l35 -11z"></glyph>
      <glyph glyph-name="five" unicode="5" d="M297 -12q-59 0 -112.5 22t-92 62.5t-52.5 96.5l118 42q17 -51 55 -75.5t84 -24.5q38 0 67.5 16.5t45.5 46t16 68.5t-16.5 68t-45.5 45.5t-67 16.5q-39 0 -70.5 -17t-45.5 -49l-111 25l59 414h406v-115h-352l51 59l-42 -312l-39 32q28 41 68.5 60t98.5 19q74 0 128.5 -32 t84.5 -87t30 -127t-35 -130t-95 -91t-136 -33z"></glyph>
      <glyph glyph-name="six" unicode="6" d="M302 -12q-76 0 -134.5 32.5t-91.5 88t-33 126.5q0 36 7.5 72t28 77t59.5 91l208 270h162l-253 -325l-22 24q14 11 29 17.5t30.5 9.5t32.5 3q68 0 121 -31t83.5 -84.5t30.5 -120.5q0 -72 -33 -128.5t-91.5 -89t-133.5 -32.5zM302 111q34 0 61.5 15.5t44 44.5t16.5 65 q0 38 -16.5 65.5t-43.5 43.5t-62 16q-34 0 -62 -16t-44.5 -43.5t-16.5 -65.5q0 -36 16.5 -65t44.5 -44.5t62 -15.5z"></glyph>
      <glyph glyph-name="seven" unicode="7" d="M72 0l310 630h-351v115h494v-115l-303 -630h-150z"></glyph>
      <glyph glyph-name="eight" unicode="8" d="M316 -12q-81 0 -140.5 30.5t-92 82.5t-32.5 114q0 73 39 123.5t113 74.5l-8 -33q-53 17 -83.5 66t-30.5 108t30 105t83 72t122 26q68 0 120.5 -26t83 -72t30.5 -105q0 -60 -30.5 -108.5t-83.5 -66.5l-7 35q74 -26 113 -76.5t39 -123.5q0 -62 -32.5 -113.5t-92 -82 t-140.5 -30.5zM316 103q39 0 68 14.5t45 41t16 60.5q0 35 -16 60.5t-45 40t-68 14.5t-67.5 -14.5t-44.5 -40t-16 -60.5q0 -34 16 -60.5t44.5 -41t67.5 -14.5zM316 449q29 0 51 13t34.5 34.5t12.5 49.5t-12.5 49.5t-34.5 34t-51 12.5t-51.5 -12.5t-35 -34t-12.5 -49.5 t12.5 -49.5t35 -34.5t51.5 -13z"></glyph>
      <glyph glyph-name="nine" unicode="9" d="M94 0l253 326l23 -24q-15 -11 -29 -18t-30 -10t-34 -3q-68 0 -121 31t-83.5 84.5t-30.5 121.5q0 72 33.5 128t92 88.5t133.5 32.5q76 0 134 -32t91.5 -87.5t33.5 -127.5q0 -36 -8 -72t-28.5 -76.5t-58.5 -91.5l-208 -270h-163zM301 385q35 0 62.5 15.5t43.5 44t16 64.5 q0 38 -16.5 66t-43.5 44t-62 16q-34 0 -62 -16t-44.5 -44t-16.5 -66q0 -36 16.5 -64.5t44.5 -44t62 -15.5z"></glyph>
      <glyph glyph-name="colon" unicode=":" d="M123 0v140h132v-140h-132zM123 404v140h132v-140h-132z"></glyph>
      <glyph glyph-name="semicolon" unicode=";" d="M123 -156v64q33 8 54 31t27 61h-61v140h132v-86q0 -88 -38.5 -141t-113.5 -69zM143 404v140h132v-140h-132z"></glyph>
      <glyph glyph-name="less" unicode="&lt;" d="M557 13l-459 195v128l459 196v-134l-352 -149v46l352 -149v-133z"></glyph>
      <glyph glyph-name="equal" unicode="=" d="M105 301v113h450v-113h-450zM105 59v112h450v-112h-450z"></glyph>
      <glyph glyph-name="greater" unicode="&gt;" d="M104 13v133l351 149v-46l-351 149v134l458 -196v-128z"></glyph>
      <glyph glyph-name="question" unicode="?" d="M211 226v20q0 44 13.5 78t34.5 60.5t44 48.5q31 31 55.5 57.5t24.5 62.5q0 22 -11 41t-32.5 30t-52.5 11q-42 0 -72.5 -26t-37.5 -69l-122 30q9 56 40.5 98t82 65.5t112.5 23.5q73 0 124.5 -29t78.5 -75t27 -97q0 -40 -16 -71t-39.5 -56.5t-48.5 -50.5q-32 -30 -56 -63 t-24 -77v-12h-125zM208 0v140h133v-140h-133z"></glyph>
      <glyph glyph-name="at" unicode="@" d="M484 -218q-94 0 -173 31t-138 88t-91 135.5t-32 173.5q0 94 32 172.5t91 135t138 88t172 31.5q94 0 171 -32t132.5 -89t85.5 -135t30 -170q0 -65 -22.5 -112.5t-62 -73t-92.5 -25.5q-34 0 -67.5 13.5t-56 41.5t-24.5 74l24 -50q-10 -25 -33 -42.5t-53.5 -27t-63.5 -9.5 q-58 0 -105.5 27.5t-76 76t-28.5 109.5q0 60 28 110t76.5 80t109.5 30q49 0 88 -18.5t52 -49.5l-10 -34v92h91v-253q0 -36 14 -55t38 -19q33 0 49 27.5t16 91.5q0 69 -20.5 127.5t-59.5 102t-96.5 68t-132.5 24.5q-73 0 -132.5 -24.5t-103 -68.5t-67 -103t-23.5 -130 q0 -72 24.5 -132.5t68.5 -104.5t103.5 -68t129.5 -24q47 0 90.5 11.5t79.5 34.5l46 -88q-94 -58 -216 -58zM462 96q34 0 60 16t40.5 43.5t14.5 60.5q0 51 -32 85t-82 35q-33 0 -60 -15t-42.5 -42t-15.5 -62q0 -34 15.5 -61.5t42 -43.5t59.5 -16z"></glyph>
      <glyph glyph-name="A" unicode="A" d="M11 0l257 745h176l257 -745h-148l-53 160h-288l-54 -160h-147zM251 280h210l-124 371h38z"></glyph>
      <glyph glyph-name="B" unicode="B" d="M72 0v745h314q74 0 126.5 -25.5t81 -72t28.5 -112.5q0 -51 -27.5 -95.5t-87.5 -73.5v63q55 -21 87 -52t45 -69t13 -80q0 -107 -70.5 -167.5t-195.5 -60.5h-314zM208 120h192q53 0 84.5 29.5t31.5 78.5t-31.5 79t-84.5 30h-192v-217zM208 456h185q42 0 67 24.5t25 63.5 t-25 62t-67 23h-185v-173z"></glyph>
      <glyph glyph-name="C" unicode="C" d="M422 -12q-80 0 -147.5 29t-118 81t-78.5 122t-28 153t27.5 153.5t78 122t118.5 80t148 28.5t143.5 -27t107.5 -71.5t63 -97.5l-122 -57q-21 56 -71 92.5t-121 36.5q-70 0 -123.5 -33t-83 -91t-29.5 -136t29.5 -136.5t83 -91.5t123.5 -33q71 0 121 36.5t71 92.5l122 -57 q-19 -53 -63 -97.5t-107.5 -71.5t-143.5 -27z"></glyph>
      <glyph glyph-name="D" unicode="D" d="M72 0v745h243q118 0 205.5 -47.5t135.5 -131t48 -193.5q0 -109 -48 -193.5t-135.5 -132t-205.5 -47.5h-243zM208 120h110q76 0 131.5 31.5t86.5 88t31 133.5q0 78 -31 134t-86.5 87t-131.5 31h-110v-505z"></glyph>
      <glyph glyph-name="E" unicode="E" d="M72 0v745h495v-120h-359v-191h339v-120h-339v-194h359v-120h-495z"></glyph>
      <glyph glyph-name="F" unicode="F" d="M72 0v745h497v-120h-361v-206h316v-120h-316v-299h-136z"></glyph>
      <glyph glyph-name="G" unicode="G" d="M425 -12q-80 0 -148 29t-119 81t-79.5 122t-28.5 153t27.5 153.5t78 122t118.5 80t148 28.5t143.5 -27t107.5 -71.5t63 -97.5l-121 -58q-21 58 -71 94t-122 36q-70 0 -123.5 -33t-83 -91t-29.5 -136t30.5 -136.5t84.5 -91.5t124 -33q57 0 105 22.5t77 64t29 98.5v57 l62 -54h-276v115h350v-75q0 -86 -29 -152t-78.5 -110.5t-111.5 -67t-128 -22.5z"></glyph>
      <glyph glyph-name="H" unicode="H" d="M72 0v745h136v-325h317v325h137v-745h-137v300h-317v-300h-136z"></glyph>
      <glyph glyph-name="I" unicode="I" d="M72 0v745h136v-745h-136z"></glyph>
      <glyph glyph-name="J" unicode="J" d="M39 0v125h43q48 0 76.5 27.5t28.5 73.5v519h137v-514q0 -69 -29.5 -121t-84 -81t-128.5 -29h-43z"></glyph>
      <glyph glyph-name="K" unicode="K" d="M72 0v745h136v-388l-37 13l317 375h171l-297 -352l8 96l298 -489h-160l-200 328l-100 -119v-209h-136z"></glyph>
      <glyph glyph-name="L" unicode="L" d="M72 0v745h136v-625h319v-120h-455z"></glyph>
      <glyph glyph-name="M" unicode="M" d="M72 0v745h130l279 -379h-62l273 379h130v-745h-137v590l53 -13l-283 -377h-16l-276 377l45 13v-590h-136z"></glyph>
      <glyph glyph-name="N" unicode="N" d="M72 0v745h106l410 -552l-55 -11v563h136v-745h-107l-404 556l50 11v-567h-136z"></glyph>
      <glyph glyph-name="O" unicode="O" d="M439 -12q-82 0 -153 29t-124 81t-82.5 122.5t-29.5 152.5q0 83 29 153t82 122t124 80.5t154 28.5t154 -29t124 -80.5t82.5 -121.5t29.5 -153q0 -82 -30 -152.5t-83 -122.5t-123.5 -81t-153.5 -29zM439 112q55 0 101 19.5t80.5 54.5t53 83t18.5 104t-18.5 103.5t-53 83 t-80.5 54.5t-101 19q-54 0 -100 -19t-80.5 -54.5t-53.5 -83t-19 -103.5t19 -104t53.5 -83t80.5 -54.5t100 -19.5z"></glyph>
      <glyph glyph-name="P" unicode="P" d="M72 0v745h278q76 0 134.5 -27.5t91.5 -80t33 -127.5q0 -74 -33.5 -126.5t-91.5 -80.5t-134 -28h-142v-275h-136zM208 395h144q37 0 64 14.5t42 40.5t15 60q0 35 -15 60.5t-42 40t-64 14.5h-144v-230z"></glyph>
      <glyph glyph-name="Q" unicode="Q" d="M439 -12q-82 0 -153 29t-124 81t-82.5 122.5t-29.5 152.5q0 83 29 153t82 122t124 80.5t154 28.5t154 -29t124 -80.5t82.5 -121.5t29.5 -153q0 -82 -30 -152.5t-83 -122.5t-123.5 -81t-153.5 -29zM439 112q55 0 101 19.5t80.5 54.5t53 83t18.5 104t-18.5 103.5t-53 83 t-80.5 54.5t-101 19q-54 0 -100 -19t-80.5 -54.5t-53.5 -83t-19 -103.5t19 -104t53.5 -83t80.5 -54.5t100 -19.5zM611 -90l-232 388h142l235 -388h-145z"></glyph>
      <glyph glyph-name="R" unicode="R" d="M72 0v745h277q76 0 134.5 -27.5t91.5 -80t33 -127.5q0 -77 -36.5 -131t-98.5 -80l171 -299h-154l-183 327l88 -52h-187v-275h-136zM208 395h143q37 0 64 14.5t42 40.5t15 60q0 35 -15 60.5t-42 40t-64 14.5h-143v-230z"></glyph>
      <glyph glyph-name="S" unicode="S" d="M338 -12q-71 0 -131.5 26t-104 72.5t-63.5 108.5l113 49q27 -64 78 -100.5t115 -36.5q36 0 62.5 11.5t41 31.5t14.5 48q0 33 -19.5 54.5t-58.5 33.5l-143 46q-87 27 -131 81t-44 127q0 64 31.5 113t88 76.5t129.5 27.5q67 0 123 -23.5t96.5 -65t60.5 -97.5l-112 -50 q-22 56 -66 86.5t-102 30.5q-34 0 -60 -11.5t-40.5 -32t-14.5 -48.5q0 -31 20 -54.5t61 -36.5l137 -43q89 -29 133.5 -80t44.5 -126q0 -64 -33 -113t-91 -77t-135 -28z"></glyph>
      <glyph glyph-name="T" unicode="T" d="M204 0v625h-193v120h520v-120h-190v-625h-137z"></glyph>
      <glyph glyph-name="U" unicode="U" d="M359 -12q-86 0 -152.5 36t-104.5 99t-38 143v479h136v-472q0 -46 20.5 -83t56.5 -57.5t82 -20.5q47 0 82.5 20.5t56 57.5t20.5 83v472h136v-479q0 -80 -38 -143t-104.5 -99t-152.5 -36z"></glyph>
      <glyph glyph-name="V" unicode="V" d="M271 0l-260 745h148l204 -617h-29l204 617h148l-259 -745h-156z"></glyph>
      <glyph glyph-name="W" unicode="W" d="M211 0l-200 745h146l157 -635h-38l164 635h141l163 -635h-38l157 635h146l-200 -745h-156l-165 618h44l-165 -618h-156z"></glyph>
      <glyph glyph-name="X" unicode="X" d="M11 0l244 375l-242 370h156l198 -303h-72l197 303h156l-241 -370l243 -375h-156l-199 307h72l-200 -307h-156z"></glyph>
      <glyph glyph-name="Y" unicode="Y" d="M262 0v330l-251 415h155l192 -324h-55l191 324h155l-250 -414v-331h-137z"></glyph>
      <glyph glyph-name="Z" unicode="Z" d="M14 0v107l361 518h-340v120h513v-107l-360 -518h370v-120h-544z"></glyph>
      <glyph glyph-name="bracketleft" unicode="[" d="M105 -170v915h260v-115h-128v-685h128v-115h-260z"></glyph>
      <glyph glyph-name="backslash" unicode="\" d="M348 -120l-332 825h143l332 -825h-143z"></glyph>
      <glyph glyph-name="bracketright" unicode="]" d="M51 -170v115h128v685h-128v115h260v-915h-260z"></glyph>
      <glyph glyph-name="asciicircum" unicode="^" d="M98 420l170 325h126l169 -325h-144l-115 221h55l-116 -221h-145z"></glyph>
      <glyph glyph-name="underscore" unicode="_" d="M88 -115v115h487v-115h-487z"></glyph>
      <glyph glyph-name="grave" unicode="`" d="M229 640l-106 173h170l65 -173h-129z"></glyph>
      <glyph glyph-name="a" unicode="a" d="M226 -12q-57 0 -99 19t-65 54.5t-23 82.5q0 45 20 80.5t62 59.5t106 34l178 29v-100l-153 -26q-39 -7 -58 -25t-19 -47q0 -28 21.5 -44.5t53.5 -16.5q41 0 72.5 17.5t49 48.5t17.5 68v140q0 35 -27.5 58.5t-72.5 23.5q-42 0 -74.5 -22.5t-47.5 -59.5l-107 52 q16 43 50.5 74.5t81.5 49.5t102 18q67 0 118 -24.5t79.5 -68t28.5 -101.5v-362h-124v93l28 2q-21 -35 -50 -58.5t-66 -36t-82 -12.5z"></glyph>
      <glyph glyph-name="b" unicode="b" d="M358 -12q-59 0 -108.5 23.5t-78.5 67.5l13 26v-105h-123v757h131v-321l-20 27q28 44 76 68.5t111 24.5q77 0 139 -38t98.5 -102t36.5 -144q0 -79 -36 -144t-98 -102.5t-141 -37.5zM343 108q45 0 80 21t54.5 58t19.5 85t-19.5 84.5t-54.5 58t-80 21.5q-43 0 -77.5 -21 t-54 -58.5t-19.5 -84.5q0 -48 19.5 -85t54 -58t77.5 -21z"></glyph>
      <glyph glyph-name="c" unicode="c" d="M323 -12q-81 0 -145.5 37.5t-101.5 102t-37 145.5t37 145t101.5 101t145.5 37q58 0 108 -20.5t86.5 -56t52.5 -84.5l-115 -50q-15 41 -50.5 66t-81.5 25q-43 0 -76.5 -21t-52.5 -58t-19 -85t19 -85t52.5 -58t76.5 -21q47 0 82 25t50 67l115 -52q-16 -46 -52 -82.5 t-86 -57t-109 -20.5z"></glyph>
      <glyph glyph-name="d" unicode="d" d="M314 -12q-79 0 -141 37.5t-98 102.5t-36 144q0 80 36 144t98.5 102t139.5 38q62 0 110.5 -24.5t76.5 -68.5l-20 -27v321h131v-757h-124v105l14 -26q-28 -44 -78 -67.5t-109 -23.5zM328 108q45 0 79 21t53.5 58t19.5 85q0 47 -19.5 84.5t-53.5 58.5t-79 21 q-44 0 -79 -21.5t-54.5 -58t-19.5 -84.5t19.5 -85t54.5 -58t79 -21z"></glyph>
      <glyph glyph-name="e" unicode="e" d="M319 -12q-84 0 -147 38t-98 103t-35 144q0 82 35.5 145.5t97 100.5t137.5 37q64 0 112.5 -21t82.5 -58t52 -84.5t18 -102.5q0 -14 -1.5 -29t-5.5 -26h-420v100h346l-62 -47q9 46 -4.5 82t-44 57t-73.5 21q-41 0 -73 -20.5t-48.5 -60t-12.5 -95.5q-4 -50 13.5 -88.5 t52 -59.5t79.5 -21t76.5 19t49.5 51l106 -52q-16 -39 -50 -69t-80.5 -47t-102.5 -17z"></glyph>
      <glyph glyph-name="f" unicode="f" d="M124 0v427h-96v117h96v18q0 62 25.5 105.5t71.5 66.5t109 23q12 0 26.5 -1.5t24.5 -3.5v-113q-10 2 -18.5 2.5t-15.5 0.5q-44 0 -68 -19.5t-24 -60.5v-18h121v-117h-121v-427h-131z"></glyph>
      <glyph glyph-name="g" unicode="g" d="M325 -220q-61 0 -113 20t-89.5 55.5t-54.5 83.5l122 46q12 -38 47.5 -61.5t87.5 -23.5q40 0 70.5 15t47.5 43.5t17 68.5v124l25 -30q-28 -49 -75 -74t-107 -25q-76 0 -136 35t-94 96t-34 137q0 77 34 137t93 94.5t134 34.5q61 0 107.5 -25.5t77.5 -73.5l-18 -33v120h124 v-517q0 -71 -34.5 -127t-94 -88t-137.5 -32zM319 143q42 0 73.5 18.5t49.5 51.5t18 76q0 42 -18.5 75.5t-50 52.5t-72.5 19t-74 -19t-51.5 -52.5t-18.5 -75.5t18.5 -75t51 -52t74.5 -19z"></glyph>
      <glyph glyph-name="h" unicode="h" d="M61 0v757h131v-320l-18 19q19 49 62.5 74.5t101.5 25.5q60 0 106.5 -26t72.5 -72.5t26 -107.5v-350h-131v319q0 36 -14 62t-38.5 40.5t-57.5 14.5q-32 0 -57 -14.5t-39 -40.5t-14 -62v-319h-131z"></glyph>
      <glyph glyph-name="i" unicode="i" d="M61 0v544h131v-544h-131zM61 605v140h131v-140h-131z"></glyph>
      <glyph glyph-name="j" unicode="j" d="M-14 -221q-13 0 -27 1t-23 3v114q18 -3 36 -3q42 0 65.5 19.5t23.5 59.5v571h131v-571q0 -62 -25 -105.5t-71.5 -66t-109.5 -22.5zM61 605v140h131v-140h-131z"></glyph>
      <glyph glyph-name="k" unicode="k" d="M61 0v757h131v-496l-50 15l256 268h163l-201 -219l205 -325h-150l-178 282l78 16l-164 -176l41 80v-202h-131z"></glyph>
      <glyph glyph-name="l" unicode="l" d="M61 0v757h131v-757h-131z"></glyph>
      <glyph glyph-name="m" unicode="m" d="M61 0v544h123v-126l-14 21q15 59 60 88t106 29q67 0 118 -35t66 -92l-37 -3q25 65 75 97.5t115 32.5q58 0 103.5 -26t71.5 -72.5t26 -107.5v-350h-131v319q0 36 -13 62t-36 40.5t-56 14.5q-31 0 -55 -14.5t-37 -40.5t-13 -62v-319h-131v319q0 36 -13 62t-36.5 40.5 t-55.5 14.5q-31 0 -55 -14.5t-37 -40.5t-13 -62v-319h-131z"></glyph>
      <glyph glyph-name="n" unicode="n" d="M61 0v544h123v-107l-10 19q19 49 62.5 74.5t101.5 25.5q60 0 106.5 -26t72.5 -72.5t26 -107.5v-350h-131v319q0 36 -14 62t-38.5 40.5t-57.5 14.5q-32 0 -57 -14.5t-39 -40.5t-14 -62v-319h-131z"></glyph>
      <glyph glyph-name="o" unicode="o" d="M327 -12q-80 0 -145.5 37t-104 101t-38.5 146t38.5 146t103.5 101t146 37q80 0 145 -37t103.5 -100.5t38.5 -146.5q0 -82 -39 -146t-104 -101t-144 -37zM327 108q44 0 77.5 21t53 58.5t19.5 84.5q0 48 -19.5 84.5t-53 58t-77.5 21.5q-45 0 -79 -21.5t-53.5 -58 t-19.5 -84.5q0 -47 19.5 -84.5t53.5 -58.5t79 -21z"></glyph>
      <glyph glyph-name="p" unicode="p" d="M61 -200v744h123v-108l-12 27q28 44 76 68.5t111 24.5q77 0 139 -38t98.5 -102t36.5 -144q0 -79 -36 -144t-98 -102.5t-141 -37.5q-59 0 -108.5 23.5t-78.5 67.5l21 26v-305h-131zM343 108q45 0 80 21t54.5 58t19.5 85t-19.5 84.5t-54.5 58t-80 21.5q-43 0 -77.5 -21 t-54 -58.5t-19.5 -84.5q0 -48 19.5 -85t54 -58t77.5 -21z"></glyph>
      <glyph glyph-name="q" unicode="q" d="M480 -200v305l21 -26q-28 -44 -78 -67.5t-109 -23.5q-79 0 -141 37.5t-98 102.5t-36 144q0 80 36 144t98.5 102t139.5 38q62 0 110.5 -24.5t76.5 -68.5l-13 -27v108h124v-744h-131zM328 108q45 0 79 21t53.5 58t19.5 85q0 47 -19.5 84.5t-53.5 58.5t-79 21 q-44 0 -79 -21.5t-54.5 -58t-19.5 -84.5t19.5 -85t54.5 -58t79 -21z"></glyph>
      <glyph glyph-name="r" unicode="r" d="M61 0v544h123v-121l-10 18q19 61 59.5 85t97.5 24h32v-116h-47q-56 0 -90 -34.5t-34 -96.5v-303h-131z"></glyph>
      <glyph glyph-name="s" unicode="s" d="M268 -12q-87 0 -151.5 41.5t-88.5 112.5l98 47q21 -46 58.5 -72t83.5 -26q36 0 57 16t21 42q0 16 -8.5 26.5t-23 18t-31.5 12.5l-89 25q-69 20 -104.5 61t-35.5 97q0 50 25.5 87.5t71 58.5t104.5 21q77 0 136 -37t84 -104l-100 -47q-14 37 -47 59t-74 22q-33 0 -52 -15 t-19 -39q0 -15 8 -26t22.5 -18t33.5 -13l87 -26q67 -20 103.5 -60t36.5 -98q0 -49 -26 -86.5t-72 -58.5t-108 -21z"></glyph>
      <glyph glyph-name="t" unicode="t" d="M309 -6q-92 0 -142.5 50.5t-50.5 142.5v240h-94v117h10q40 0 62 21t22 61v42h131v-124h125v-117h-125v-233q0 -27 9.5 -46t30 -29t52.5 -10q7 0 16.5 1t18.5 2v-112q-14 -2 -32 -4t-33 -2z"></glyph>
      <glyph glyph-name="u" unicode="u" d="M255 -12q-63 0 -109.5 28t-71 78t-24.5 117v333h131v-322q0 -34 13.5 -59.5t39 -40t57.5 -14.5t57 14.5t39 40.5t14 62v319h131v-544h-124v107l11 -19q-19 -50 -62.5 -75t-101.5 -25z"></glyph>
      <glyph glyph-name="v" unicode="v" d="M225 0l-214 544h143l155 -428h-53l156 428h143l-214 -544h-116z"></glyph>
      <glyph glyph-name="w" unicode="w" d="M198 0l-187 544h138l137 -413l-48 1l146 412h116l145 -412l-48 -1l137 413h138l-187 -544h-117l-148 431h44l-150 -431h-116z"></glyph>
      <glyph glyph-name="x" unicode="x" d="M12 0l190 273l-191 271h154l149 -220h-69l149 220h153l-190 -271l189 -273h-153l-147 219h67l-147 -219h-154z"></glyph>
      <glyph glyph-name="y" unicode="y" d="M127 -220q-22 0 -43 3.5t-38 12.5v109q13 -3 31.5 -6t34.5 -3q45 0 65.5 20.5t36.5 54.5l36 84l-2 -110l-237 599h141l166 -442h-50l165 442h142l-237 -599q-21 -52 -51 -89t-69.5 -56.5t-90.5 -19.5z"></glyph>
      <glyph glyph-name="z" unicode="z" d="M14 0v106l316 366l20 -45h-322v117h438v-107l-310 -366l-20 45h332v-116h-454z"></glyph>
      <glyph glyph-name="braceleft" unicode="{" d="M301 -170q-84 0 -130.5 42.5t-46.5 118.5v175q0 28 -13 43.5t-39 15.5h-31v115h31q26 0 39 16t13 43v186q0 75 46.5 117.5t130.5 42.5h46v-115h-46q-21 0 -33 -12.5t-11 -35.5v-172q0 -40 -15.5 -72.5t-44.5 -53.5q29 -17 44.5 -49t15.5 -71v-170q-1 -22 11 -35.5 t33 -13.5h46v-115h-46z"></glyph>
      <glyph glyph-name="bar" unicode="|" d="M131 -190v1035h133v-1035h-133z"></glyph>
      <glyph glyph-name="braceright" unicode="}" d="M51 -170v115h46q21 0 33 13.5t12 35.5v170q-1 39 14.5 71t44.5 49q-29 21 -44.5 53.5t-14.5 72.5v172q0 23 -12 35.5t-33 12.5h-46v115h46q85 0 131 -42.5t46 -117.5v-186q0 -27 13.5 -43t38.5 -16h31v-115h-31q-25 0 -38.5 -15.5t-13.5 -43.5v-175q0 -76 -46 -118.5 t-131 -42.5h-46z"></glyph>
      <glyph glyph-name="asciitilde" unicode="~" d="M427 190q-34 0 -58 10t-42.5 23t-36 23t-38.5 10q-23 0 -38 -15.5t-19 -45.5h-107q5 83 44 126.5t105 43.5q34 0 58 -9.5t42.5 -23t36 -23t37.5 -9.5q22 0 36 14t20 47h106q-6 -84 -42.5 -127.5t-103.5 -43.5z"></glyph>
      <glyph glyph-name="uni00A0" unicode=" "></glyph>
      <glyph glyph-name="exclamdown" unicode="¡" d="M119 -201l9 519h115l9 -519h-133zM119 404v140h133v-140h-133z"></glyph>
      <glyph glyph-name="cent" unicode="¢" d="M323 89q-81 0 -145.5 37.5t-101.5 102t-37 145.5t37 145t101.5 101t145.5 37q58 0 108 -20.5t86.5 -56t52.5 -83.5l-115 -51q-15 41 -50.5 66t-81.5 25q-43 0 -76.5 -21t-52.5 -58t-19 -85q0 -47 19 -84.5t52.5 -58.5t76.5 -21q47 0 82 25t50 67l115 -52q-16 -46 -52 -82 t-86 -57t-109 -21zM278 0v745h85v-745h-85z"></glyph>
      <glyph glyph-name="sterling" unicode="£" d="M36 0v115h100v399q0 73 30.5 127.5t87 85t133.5 30.5q61 0 112.5 -23t86.5 -64.5t42 -98.5l-120 -37q-7 50 -40.5 75.5t-80.5 25.5q-55 0 -85 -31.5t-30 -89.5v-399h323v-115h-559zM36 337v84h420v-84h-420z"></glyph>
      <glyph glyph-name="currency" unicode="¤" d="M115 11l-76 76l79 78q-14 23 -21.5 49t-7.5 55q0 28 7.5 54.5t21.5 49.5l-79 79l76 76l79 -79q23 14 49 21t54 7q29 0 55.5 -7t48.5 -21l79 79l76 -76l-79 -79q14 -23 21 -49.5t7 -54.5q0 -29 -7 -55t-21 -49l79 -78l-76 -76l-79 78q-22 -13 -48.5 -20.5t-55.5 -7.5 q-27 0 -53.5 7t-49.5 21zM297 177q26 0 46.5 12.5t33 33.5t12.5 46q0 26 -12.5 46.5t-33 33t-46.5 12.5q-25 0 -46 -12.5t-33.5 -33t-12.5 -46.5q0 -25 12.5 -46t33.5 -33.5t46 -12.5z"></glyph>
      <glyph glyph-name="yen" unicode="¥" d="M262 0v330l-251 415h155l192 -324h-55l191 324h155l-250 -414v-331h-137zM120 289v83h420v-83h-420zM120 145v84h420v-84h-420z"></glyph>
      <glyph glyph-name="brokenbar" unicode="¦" d="M131 428v417h133v-417h-133zM131 -190v418h133v-418h-133z"></glyph>
      <glyph glyph-name="section" unicode="§" d="M279 -97q-91 0 -158 43.5t-93 117.5l99 47q24 -48 63.5 -75.5t88.5 -27.5q39 0 62.5 17t23.5 47q0 17 -9 29t-25 20.5t-35 13.5l-94 27q-72 20 -109.5 63.5t-37.5 101.5q0 52 27 91t74.5 61t108.5 22l-1 -73q-37 0 -58 -21.5t-21 -56.5q0 -22 10 -38t28.5 -27.5 t43.5 -18.5l80 -23q71 -21 109 -64t38 -103q0 -51 -27 -90t-75.5 -61t-112.5 -22zM279 159v70q39 0 62.5 21.5t23.5 59.5q0 22 -9.5 38t-28 28t-45.5 19l-80 23q-72 20 -109.5 63.5t-37.5 101.5q0 52 27 91t74.5 61t108.5 22q78 0 140 -38t89 -109l-100 -47q-15 39 -51 62.5 t-79 23.5q-37 0 -58 -16.5t-21 -43.5q0 -18 9.5 -30.5t25.5 -19.5t34 -13l93 -27q71 -21 109 -64t38 -103q0 -51 -27 -90t-75.5 -61t-112.5 -22z"></glyph>
      <glyph glyph-name="dieresis" unicode="¨" d="M123 640v138h137v-138h-137zM340 640v138h138v-138h-138z"></glyph>
      <glyph glyph-name="copyright" unicode="©" d="M470 -12q-80 0 -150 30t-123 83t-83 123t-30 150t29.5 149t82.5 122t123 82.5t151 29.5q79 0 148.5 -29.5t122.5 -82t83 -122t30 -149.5t-29.5 -150t-82.5 -123t-122.5 -83t-149.5 -30zM470 81q61 0 113.5 22.5t92.5 62.5t62.5 93t22.5 115q0 60 -22.5 113t-62.5 93 t-92.5 62.5t-113.5 22.5q-62 0 -115 -22.5t-93 -62.5t-62.5 -92.5t-22.5 -113.5q0 -62 22.5 -115t62.5 -93t93 -62.5t115 -22.5zM474 163q-58 0 -105.5 27.5t-75 75t-27.5 107.5q0 61 27.5 108t74.5 74t106 27q45 0 81.5 -14.5t61.5 -39.5t35 -57l-90 -35q-10 24 -32.5 40.5 t-55.5 16.5q-49 0 -78.5 -33.5t-29.5 -86.5t29.5 -86.5t78.5 -33.5q32 0 55 16t33 40l90 -35q-10 -32 -35 -57t-61.5 -39.5t-81.5 -14.5z"></glyph>
      <glyph glyph-name="ordfeminine" unicode="ª" d="M173 355q-62 0 -98 30t-36 81q0 49 33.5 80.5t101.5 42.5l117 19v-78l-98 -18q-22 -4 -33.5 -13.5t-11.5 -28.5q0 -17 12.5 -27t32.5 -10q26 0 45.5 11.5t30.5 30t11 42.5v99q0 21 -17.5 36t-45.5 15q-29 0 -50.5 -16t-29.5 -40l-85 40q17 48 63.5 76t105.5 28 q73 0 118.5 -38.5t45.5 -100.5v-252h-99v62l25 3q-25 -37 -58.5 -55.5t-79.5 -18.5z"></glyph>
      <glyph glyph-name="guillemotleft" unicode="«" d="M198 72l-153 197l153 198h145l-152 -198l152 -197h-145zM483 72l-153 197l153 198h145l-152 -198l152 -197h-145z"></glyph>
      <glyph glyph-name="logicalnot" unicode="¬" d="M468 40v154h-388v113h500v-267h-112z"></glyph>
      <glyph glyph-name="registered" unicode="®" d="M341 271q-71 0 -129.5 35t-93 93.5t-34.5 128.5q0 72 34.5 130t93 92t129.5 34q53 0 99 -19.5t81 -54.5t55 -82t20 -100q0 -70 -34 -128.5t-92 -93.5t-129 -35zM341 342q51 0 93 25t67 67.5t25 93.5q0 52 -25.5 94.5t-67 67.5t-92.5 25q-53 0 -95 -25.5t-67 -68 t-25 -93.5q0 -52 25 -94.5t68 -67t94 -24.5zM232 393v271h119q44 0 73 -21.5t29 -69.5q0 -31 -14.5 -50t-36.5 -30l57 -100h-79l-51 92h-23v-92h-74zM306 547h47q12 0 19.5 8t7.5 19q0 12 -7.5 19.5t-19.5 7.5h-47v-54z"></glyph>
      <glyph glyph-name="macron" unicode="¯" d="M123 660v108h322v-108h-322z"></glyph>
      <glyph glyph-name="degree" unicode="°" d="M267 423q-46 0 -84 22.5t-60.5 60t-22.5 84.5q0 46 22.5 84t60.5 60.5t84 22.5q47 0 85 -22.5t60.5 -60.5t22.5 -84q0 -47 -22.5 -84.5t-60.5 -60t-85 -22.5zM267 513q32 0 54.5 22t22.5 55t-23 55t-54 22q-32 0 -54 -22t-22 -55t22 -55t54 -22z"></glyph>
      <glyph glyph-name="plusminus" unicode="±" d="M274 183v146h-194v113h194v146h113v-146h193v-113h-193v-146h-113zM80 0v113h500v-113h-500z"></glyph>
      <glyph glyph-name="uni00B2" unicode="²" d="M23 224v84l141 145q36 39 58 63.5t31.5 42.5t9.5 35q0 29 -18.5 45.5t-46.5 16.5t-50.5 -16.5t-32.5 -49.5l-95 30q9 42 35.5 72t64.5 46t78 16q52 0 91.5 -18.5t61 -51.5t21.5 -77q0 -46 -24.5 -85t-66.5 -83l-119 -123h216v-92h-355z"></glyph>
      <glyph glyph-name="uni00B3" unicode="³" d="M202 215q-43 0 -82.5 16.5t-66.5 46.5t-37 69l95 33q13 -33 36.5 -49.5t54.5 -16.5q38 0 60.5 21t22.5 58q0 35 -22 56t-61 21q-33 0 -59 -13l-25 52l133 146h-202v90h324v-84l-136 -154l3 42q47 0 81.5 -19t53.5 -54t19 -80q0 -51 -25 -92t-68.5 -65t-98.5 -24z"></glyph>
      <glyph glyph-name="acute" unicode="´" d="M123 640l65 173h170l-106 -173h-129z"></glyph>
      <glyph glyph-name="uni00B5" unicode="µ" d="M50 -140v684h131v-322q0 -34 13.5 -59.5t38.5 -40t58 -14.5q32 0 57 14.5t39 40.5t14 62v319h131v-544h-124v125l14 -20q-14 -59 -59 -88t-108 -29q-31 0 -58 7.5t-50 21.5l34 46v-203h-131z"></glyph>
      <glyph glyph-name="paragraph" unicode="¶" d="M297 -100v410q-67 0 -117.5 27.5t-78.5 76.5t-28 113q0 65 28 114t78.5 76.5t117.5 27.5h136v-845h-136z"></glyph>
      <glyph glyph-name="periodcentered" unicode="·" d="M123 202v140h132v-140h-132z"></glyph>
      <glyph glyph-name="cedilla" unicode="¸" d="M236 -237q-26 0 -58.5 8.5t-54.5 24.5l28 75q15 -10 33 -15.5t35 -5.5q22 0 34 9t12 25q0 19 -24 30.5t-70 16.5l21 79h77l-9 -40q52 -7 82 -32.5t30 -63.5q0 -51 -37 -81t-99 -30z"></glyph>
      <glyph glyph-name="uni00B9" unicode="¹" d="M117 224v430h-101v91h210v-521h-109z"></glyph>
      <glyph glyph-name="ordmasculine" unicode="º" d="M244 355q-56 0 -102.5 26t-74.5 71t-28 103t28 103t74 71t103 26q56 0 102.5 -26t74 -71t27.5 -103t-27.5 -103t-74 -71t-102.5 -26zM244 450q29 0 50 14t33 37.5t12 53.5q0 31 -12.5 54.5t-33.5 37t-49 13.5t-50 -13.5t-34 -37.5t-12 -54t12 -53.5t34 -37.5t50 -14z"></glyph>
      <glyph glyph-name="guillemotright" unicode="»" d="M331 72l152 197l-152 198h144l154 -198l-154 -197h-144zM46 72l152 197l-152 198h144l154 -198l-154 -197h-144z"></glyph>
      <glyph glyph-name="onequarter" unicode="¼" d="M97 328v339h-81v78h174v-417h-93zM111 0l446 745h93l-446 -745h-93zM696 0v89h-181v78l174 250h101v-250h66v-78h-66v-89h-94zM582 134l-17 33h131v179l24 -8z"></glyph>
      <glyph glyph-name="onehalf" unicode="½" d="M97 328v339h-81v78h174v-417h-93zM111 0l446 745h93l-446 -745h-93zM508 0v72l112 116q30 29 46 48.5t23 33t7 25.5q0 20 -14 32.5t-33 12.5q-21 0 -38 -12t-25 -37l-81 27q7 33 28.5 56.5t52 36.5t63.5 13q63 0 101.5 -32.5t38.5 -85.5q0 -37 -20 -68t-50 -63l-93 -96 h167v-79h-285z"></glyph>
      <glyph glyph-name="threequarters" unicode="¾" d="M166 321q-52 0 -95 29.5t-55 77.5l83 28q9 -25 26 -37.5t41 -12.5q28 0 45.5 16t17.5 43q0 25 -16.5 40.5t-46.5 15.5q-12 0 -25.5 -3t-23.5 -8l-22 44l105 114h-157v77h262v-73l-110 -121l4 39q56 0 89 -34.5t33 -88.5q0 -41 -20.5 -74t-55.5 -52.5t-79 -19.5zM183 0 l446 745h93l-446 -745h-93zM768 0v89h-181v78l174 250h101v-250h66v-78h-66v-89h-94zM654 134l-17 33h131v179l24 -8z"></glyph>
      <glyph glyph-name="questiondown" unicode="¿" d="M293 -213q-73 0 -124 29t-78 75t-27 97q0 40 15.5 71t39.5 56.5t49 50.5q31 30 55.5 63t24.5 76v13h125v-20q0 -44 -13.5 -78t-35 -60t-43.5 -49q-31 -31 -56 -57t-25 -63q0 -23 11 -41.5t33 -29.5t52 -11q43 0 73 25.5t38 68.5l122 -30q-9 -55 -41 -97t-82 -65.5 t-113 -23.5zM242 404v140h133v-140h-133z"></glyph>
      <glyph glyph-name="Agrave" unicode="À" d="M11 0l257 745h176l257 -745h-148l-53 160h-288l-54 -160h-147zM251 280h210l-124 371h38zM292 842l-106 173h170l65 -173h-129z"></glyph>
      <glyph glyph-name="Aacute" unicode="Á" d="M11 0l257 745h176l257 -745h-148l-53 160h-288l-54 -160h-147zM251 280h210l-124 371h38zM292 842l65 173h170l-106 -173h-129z"></glyph>
      <glyph glyph-name="Acircumflex" unicode="Â" d="M11 0l257 745h176l257 -745h-148l-53 160h-288l-54 -160h-147zM251 280h210l-124 371h38zM162 842l117 165h155l118 -165h-130l-65 90l-65 -90h-130z"></glyph>
      <glyph glyph-name="Atilde" unicode="Ã" d="M11 0l257 745h176l257 -745h-148l-53 160h-288l-54 -160h-147zM251 280h210l-124 371h38zM428 842q-27 0 -45.5 8.5t-31.5 19t-26 19t-30 8.5t-26 -12.5t-9 -38.5h-101q0 80 36 117.5t87 37.5q28 0 47 -8t33 -19t26.5 -19t27.5 -8q20 0 28 13.5t8 36.5h101 q-1 -76 -37 -115.5t-88 -39.5z"></glyph>
      <glyph glyph-name="Adieresis" unicode="Ä" d="M11 0l257 745h176l257 -745h-148l-53 160h-288l-54 -160h-147zM251 280h210l-124 371h38zM179 842v138h137v-138h-137zM396 842v138h138v-138h-138z"></glyph>
      <glyph glyph-name="Aring" unicode="Å" d="M11 0l257 745h176l257 -745h-148l-53 160h-288l-54 -160h-147zM251 280h210l-124 371h38zM357 800q-53 0 -89 33.5t-36 87.5q0 53 35.5 86.5t89.5 33.5q53 0 88.5 -33.5t35.5 -86.5q0 -54 -35.5 -87.5t-88.5 -33.5zM357 878q18 0 29.5 12t11.5 31t-11.5 30.5t-29.5 11.5 t-30.5 -11.5t-12.5 -30.5t12 -31t31 -12z"></glyph>
      <glyph glyph-name="AE" unicode="Æ" d="M11 0l257 745h696v-120h-360v-191h340v-120h-340v-194h360l-1 -120h-495v160h-256l-54 -160h-147zM251 280h217v345h-101z"></glyph>
      <glyph glyph-name="Ccedilla" unicode="Ç" d="M422 -12q-80 0 -147.5 29t-118 81t-78.5 122t-28 153t27.5 153.5t78 122t118.5 80t148 28.5t143.5 -27t107.5 -71.5t63 -97.5l-122 -57q-21 56 -71 92.5t-121 36.5q-70 0 -123.5 -33t-83 -91t-29.5 -136t29.5 -136.5t83 -91.5t123.5 -33q71 0 121 36.5t71 92.5l122 -57 q-19 -53 -63 -97.5t-107.5 -71.5t-143.5 -27zM432 -237q-26 0 -58.5 8.5t-54.5 24.5l28 75q15 -10 33 -15.5t35 -5.5q22 0 34 9t12 25q0 19 -24 30.5t-70 16.5l21 79h77l-9 -40q52 -7 82 -32.5t30 -63.5q0 -51 -37 -81t-99 -30z"></glyph>
      <glyph glyph-name="Egrave" unicode="È" d="M72 0v745h495v-120h-359v-191h339v-120h-339v-194h359v-120h-495zM256 842l-106 173h170l65 -173h-129z"></glyph>
      <glyph glyph-name="Eacute" unicode="É" d="M72 0v745h495v-120h-359v-191h339v-120h-339v-194h359v-120h-495zM255 842l65 173h170l-106 -173h-129z"></glyph>
      <glyph glyph-name="Ecircumflex" unicode="Ê" d="M72 0v745h495v-120h-359v-191h339v-120h-339v-194h359v-120h-495zM125 842l117 165h155l118 -165h-130l-65 90l-65 -90h-130z"></glyph>
      <glyph glyph-name="Edieresis" unicode="Ë" d="M72 0v745h495v-120h-359v-191h339v-120h-339v-194h359v-120h-495zM143 842v138h137v-138h-137zM360 842v138h138v-138h-138z"></glyph>
      <glyph glyph-name="Igrave" unicode="Ì" d="M72 0v745h136v-745h-136zM76 842l-106 173h170l65 -173h-129z"></glyph>
      <glyph glyph-name="Iacute" unicode="Í" d="M72 0v745h136v-745h-136zM76 842l65 173h170l-106 -173h-129z"></glyph>
      <glyph glyph-name="Icircumflex" unicode="Î" d="M72 0v745h136v-745h-136zM-54 842l117 165h155l118 -165h-130l-65 90l-65 -90h-130z"></glyph>
      <glyph glyph-name="Idieresis" unicode="Ï" d="M72 0v745h136v-745h-136zM-37 842v138h137v-138h-137zM180 842v138h138v-138h-138z"></glyph>
      <glyph glyph-name="Eth" unicode="Ð" d="M16 316v115h349v-115h-349zM72 0v745h243q118 0 205.5 -47.5t135.5 -131t48 -193.5q0 -109 -48 -193.5t-135.5 -132t-205.5 -47.5h-243zM208 120h110q76 0 131.5 31.5t86.5 88t31 133.5q0 78 -31 134t-86.5 87t-131.5 31h-110v-505z"></glyph>
      <glyph glyph-name="Ntilde" unicode="Ñ" d="M72 0v745h106l410 -552l-55 -11v563h136v-745h-107l-404 556l50 11v-567h-136zM443 842q-27 0 -45.5 8.5t-31.5 19t-26 19t-30 8.5t-26 -12.5t-9 -38.5h-101q0 80 36 117.5t87 37.5q28 0 47 -8t33 -19t26.5 -19t27.5 -8q20 0 28 13.5t8 36.5h101q-1 -76 -37 -115.5 t-88 -39.5z"></glyph>
      <glyph glyph-name="Ograve" unicode="Ò" d="M439 -12q-82 0 -153 29t-124 81t-82.5 122.5t-29.5 152.5q0 83 29 153t82 122t124 80.5t154 28.5t154 -29t124 -80.5t82.5 -121.5t29.5 -153q0 -82 -30 -152.5t-83 -122.5t-123.5 -81t-153.5 -29zM439 112q55 0 101 19.5t80.5 54.5t53 83t18.5 104t-18.5 103.5t-53 83 t-80.5 54.5t-101 19q-54 0 -100 -19t-80.5 -54.5t-53.5 -83t-19 -103.5t19 -104t53.5 -83t80.5 -54.5t100 -19.5zM375 842l-106 173h170l65 -173h-129z"></glyph>
      <glyph glyph-name="Oacute" unicode="Ó" d="M439 -12q-82 0 -153 29t-124 81t-82.5 122.5t-29.5 152.5q0 83 29 153t82 122t124 80.5t154 28.5t154 -29t124 -80.5t82.5 -121.5t29.5 -153q0 -82 -30 -152.5t-83 -122.5t-123.5 -81t-153.5 -29zM439 112q55 0 101 19.5t80.5 54.5t53 83t18.5 104t-18.5 103.5t-53 83 t-80.5 54.5t-101 19q-54 0 -100 -19t-80.5 -54.5t-53.5 -83t-19 -103.5t19 -104t53.5 -83t80.5 -54.5t100 -19.5zM375 842l65 173h170l-106 -173h-129z"></glyph>
      <glyph glyph-name="Ocircumflex" unicode="Ô" d="M439 -12q-82 0 -153 29t-124 81t-82.5 122.5t-29.5 152.5q0 83 29 153t82 122t124 80.5t154 28.5t154 -29t124 -80.5t82.5 -121.5t29.5 -153q0 -82 -30 -152.5t-83 -122.5t-123.5 -81t-153.5 -29zM439 112q55 0 101 19.5t80.5 54.5t53 83t18.5 104t-18.5 103.5t-53 83 t-80.5 54.5t-101 19q-54 0 -100 -19t-80.5 -54.5t-53.5 -83t-19 -103.5t19 -104t53.5 -83t80.5 -54.5t100 -19.5zM245 842l117 165h155l118 -165h-130l-65 90l-65 -90h-130z"></glyph>
      <glyph glyph-name="Otilde" unicode="Õ" d="M439 -12q-82 0 -153 29t-124 81t-82.5 122.5t-29.5 152.5q0 83 29 153t82 122t124 80.5t154 28.5t154 -29t124 -80.5t82.5 -121.5t29.5 -153q0 -82 -30 -152.5t-83 -122.5t-123.5 -81t-153.5 -29zM439 112q55 0 101 19.5t80.5 54.5t53 83t18.5 104t-18.5 103.5t-53 83 t-80.5 54.5t-101 19q-54 0 -100 -19t-80.5 -54.5t-53.5 -83t-19 -103.5t19 -104t53.5 -83t80.5 -54.5t100 -19.5zM511 842q-27 0 -45.5 8.5t-31.5 19t-26 19t-30 8.5t-26 -12.5t-9 -38.5h-101q0 80 36 117.5t87 37.5q28 0 47 -8t33 -19t26.5 -19t27.5 -8q20 0 28 13.5 t8 36.5h101q-1 -76 -37 -115.5t-88 -39.5z"></glyph>
      <glyph glyph-name="Odieresis" unicode="Ö" d="M439 -12q-82 0 -153 29t-124 81t-82.5 122.5t-29.5 152.5q0 83 29 153t82 122t124 80.5t154 28.5t154 -29t124 -80.5t82.5 -121.5t29.5 -153q0 -82 -30 -152.5t-83 -122.5t-123.5 -81t-153.5 -29zM439 112q55 0 101 19.5t80.5 54.5t53 83t18.5 104t-18.5 103.5t-53 83 t-80.5 54.5t-101 19q-54 0 -100 -19t-80.5 -54.5t-53.5 -83t-19 -103.5t19 -104t53.5 -83t80.5 -54.5t100 -19.5zM262 842v138h137v-138h-137zM479 842v138h138v-138h-138z"></glyph>
      <glyph glyph-name="multiply" unicode="×" d="M179 0l-80 80l152 152l-151 150l80 79l150 -150l151 150l80 -79l-152 -150l152 -152l-79 -80l-152 152z"></glyph>
      <glyph glyph-name="Oslash" unicode="Ø" d="M58 0l610 745h152l-610 -745h-152zM439 -12q-82 0 -153 29t-124 81t-82.5 122.5t-29.5 152.5q0 83 29 153t82 122t124 80.5t154 28.5t154 -29t124 -80.5t82.5 -121.5t29.5 -153q0 -82 -30 -152.5t-83 -122.5t-123.5 -81t-153.5 -29zM439 112q55 0 101 19.5t80.5 54.5 t53 83t18.5 104t-18.5 103.5t-53 83t-80.5 54.5t-101 19q-54 0 -100 -19t-80.5 -54.5t-53.5 -83t-19 -103.5t19 -104t53.5 -83t80.5 -54.5t100 -19.5z"></glyph>
      <glyph glyph-name="Ugrave" unicode="Ù" d="M359 -12q-86 0 -152.5 36t-104.5 99t-38 143v479h136v-472q0 -46 20.5 -83t56.5 -57.5t82 -20.5q47 0 82.5 20.5t56 57.5t20.5 83v472h136v-479q0 -80 -38 -143t-104.5 -99t-152.5 -36zM295 842l-106 173h170l65 -173h-129z"></glyph>
      <glyph glyph-name="Uacute" unicode="Ú" d="M359 -12q-86 0 -152.5 36t-104.5 99t-38 143v479h136v-472q0 -46 20.5 -83t56.5 -57.5t82 -20.5q47 0 82.5 20.5t56 57.5t20.5 83v472h136v-479q0 -80 -38 -143t-104.5 -99t-152.5 -36zM295 842l65 173h170l-106 -173h-129z"></glyph>
      <glyph glyph-name="Ucircumflex" unicode="Û" d="M359 -12q-86 0 -152.5 36t-104.5 99t-38 143v479h136v-472q0 -46 20.5 -83t56.5 -57.5t82 -20.5q47 0 82.5 20.5t56 57.5t20.5 83v472h136v-479q0 -80 -38 -143t-104.5 -99t-152.5 -36zM165 842l117 165h155l118 -165h-130l-65 90l-65 -90h-130z"></glyph>
      <glyph glyph-name="Udieresis" unicode="Ü" d="M359 -12q-86 0 -152.5 36t-104.5 99t-38 143v479h136v-472q0 -46 20.5 -83t56.5 -57.5t82 -20.5q47 0 82.5 20.5t56 57.5t20.5 83v472h136v-479q0 -80 -38 -143t-104.5 -99t-152.5 -36zM182 842v138h137v-138h-137zM399 842v138h138v-138h-138z"></glyph>
      <glyph glyph-name="Yacute" unicode="Ý" d="M262 0v330l-251 415h155l192 -324h-55l191 324h155l-250 -414v-331h-137zM266 842l65 173h170l-106 -173h-129z"></glyph>
      <glyph glyph-name="Thorn" unicode="Þ" d="M65 0v745h136v-137h143q76 0 134 -27.5t91.5 -80t33.5 -128.5q0 -74 -33.5 -126.5t-92 -80t-133.5 -27.5h-143v-138h-136zM201 258h144q37 0 64 14t42 40t15 60q0 35 -15 61t-42 40.5t-64 14.5h-144v-230z"></glyph>
      <glyph glyph-name="germandbls" unicode="ß" d="M72 -157v660q0 79 33 136t91.5 87.5t132.5 30.5q73 0 128 -26.5t85 -74t30 -110.5q0 -55 -30 -99.5t-86 -64.5l-8 38q83 -27 119 -73t36 -119q0 -70 -30.5 -121.5t-86.5 -79t-133 -27.5h-68v115h60q55 0 88.5 31t33.5 82q0 50 -33.5 80t-88.5 30h-60v115h51q29 0 51.5 12 t35.5 33.5t13 48.5q0 28 -13.5 49.5t-37.5 33.5t-56 12q-38 0 -66 -16.5t-44 -47.5t-16 -75v-660h-131z"></glyph>
      <glyph glyph-name="agrave" unicode="à" d="M226 -12q-57 0 -99 19t-65 54.5t-23 82.5q0 45 20 80.5t62 59.5t106 34l178 29v-100l-153 -26q-39 -7 -58 -25t-19 -47q0 -28 21.5 -44.5t53.5 -16.5q41 0 72.5 17.5t49 48.5t17.5 68v140q0 35 -27.5 58.5t-72.5 23.5q-42 0 -74.5 -22.5t-47.5 -59.5l-107 52 q16 43 50.5 74.5t81.5 49.5t102 18q67 0 118 -24.5t79.5 -68t28.5 -101.5v-362h-124v93l28 2q-21 -35 -50 -58.5t-66 -36t-82 -12.5zM231 640l-106 173h170l65 -173h-129z"></glyph>
      <glyph glyph-name="aacute" unicode="á" d="M226 -12q-57 0 -99 19t-65 54.5t-23 82.5q0 45 20 80.5t62 59.5t106 34l178 29v-100l-153 -26q-39 -7 -58 -25t-19 -47q0 -28 21.5 -44.5t53.5 -16.5q41 0 72.5 17.5t49 48.5t17.5 68v140q0 35 -27.5 58.5t-72.5 23.5q-42 0 -74.5 -22.5t-47.5 -59.5l-107 52 q16 43 50.5 74.5t81.5 49.5t102 18q67 0 118 -24.5t79.5 -68t28.5 -101.5v-362h-124v93l28 2q-21 -35 -50 -58.5t-66 -36t-82 -12.5zM230 640l65 173h170l-106 -173h-129z"></glyph>
      <glyph glyph-name="acircumflex" unicode="â" d="M226 -12q-57 0 -99 19t-65 54.5t-23 82.5q0 45 20 80.5t62 59.5t106 34l178 29v-100l-153 -26q-39 -7 -58 -25t-19 -47q0 -28 21.5 -44.5t53.5 -16.5q41 0 72.5 17.5t49 48.5t17.5 68v140q0 35 -27.5 58.5t-72.5 23.5q-42 0 -74.5 -22.5t-47.5 -59.5l-107 52 q16 43 50.5 74.5t81.5 49.5t102 18q67 0 118 -24.5t79.5 -68t28.5 -101.5v-362h-124v93l28 2q-21 -35 -50 -58.5t-66 -36t-82 -12.5zM100 640l117 165h155l118 -165h-130l-65 90l-65 -90h-130z"></glyph>
      <glyph glyph-name="atilde" unicode="ã" d="M226 -12q-57 0 -99 19t-65 54.5t-23 82.5q0 45 20 80.5t62 59.5t106 34l178 29v-100l-153 -26q-39 -7 -58 -25t-19 -47q0 -28 21.5 -44.5t53.5 -16.5q41 0 72.5 17.5t49 48.5t17.5 68v140q0 35 -27.5 58.5t-72.5 23.5q-42 0 -74.5 -22.5t-47.5 -59.5l-107 52 q16 43 50.5 74.5t81.5 49.5t102 18q67 0 118 -24.5t79.5 -68t28.5 -101.5v-362h-124v93l28 2q-21 -35 -50 -58.5t-66 -36t-82 -12.5zM367 640q-27 0 -45.5 8.5t-31.5 19t-26 19t-30 8.5t-26 -12.5t-9 -38.5h-101q0 80 36 117.5t87 37.5q28 0 47 -8t33 -19t26.5 -19t27.5 -8 q20 0 28 13.5t8 36.5h101q-1 -76 -37 -115.5t-88 -39.5z"></glyph>
      <glyph glyph-name="adieresis" unicode="ä" d="M226 -12q-57 0 -99 19t-65 54.5t-23 82.5q0 45 20 80.5t62 59.5t106 34l178 29v-100l-153 -26q-39 -7 -58 -25t-19 -47q0 -28 21.5 -44.5t53.5 -16.5q41 0 72.5 17.5t49 48.5t17.5 68v140q0 35 -27.5 58.5t-72.5 23.5q-42 0 -74.5 -22.5t-47.5 -59.5l-107 52 q16 43 50.5 74.5t81.5 49.5t102 18q67 0 118 -24.5t79.5 -68t28.5 -101.5v-362h-124v93l28 2q-21 -35 -50 -58.5t-66 -36t-82 -12.5zM118 640v138h137v-138h-137zM335 640v138h138v-138h-138z"></glyph>
      <glyph glyph-name="aring" unicode="å" d="M226 -12q-57 0 -99 19t-65 54.5t-23 82.5q0 45 20 80.5t62 59.5t106 34l178 29v-100l-153 -26q-39 -7 -58 -25t-19 -47q0 -28 21.5 -44.5t53.5 -16.5q41 0 72.5 17.5t49 48.5t17.5 68v140q0 35 -27.5 58.5t-72.5 23.5q-42 0 -74.5 -22.5t-47.5 -59.5l-107 52 q16 43 50.5 74.5t81.5 49.5t102 18q67 0 118 -24.5t79.5 -68t28.5 -101.5v-362h-124v93l28 2q-21 -35 -50 -58.5t-66 -36t-82 -12.5zM295 598q-53 0 -89 33.5t-36 87.5q0 53 35.5 86.5t89.5 33.5q53 0 88.5 -33.5t35.5 -86.5q0 -54 -35.5 -87.5t-88.5 -33.5zM295 676 q18 0 29.5 12t11.5 31t-11.5 30.5t-29.5 11.5t-30.5 -11.5t-12.5 -30.5t12 -31t31 -12z"></glyph>
      <glyph glyph-name="ae" unicode="æ" d="M226 -12q-57 0 -99 19t-65 54.5t-23 82.5q0 45 20 80.5t62 59.5t106 34l162 26v18q0 35 -27.5 58.5t-72.5 23.5q-42 0 -74.5 -22.5t-47.5 -59.5l-107 52q16 43 50.5 74.5t81.5 49.5t102 18q71 0 124 -28.5t79 -76.5l-46 1q37 47 92 75.5t121 28.5q63 0 112 -21t83 -58 t51.5 -84.5t17.5 -102.5q0 -14 -1.5 -29t-4.5 -26h-392q4 -40 23 -69.5t50.5 -46t71.5 -16.5q45 0 76 19t50 51l106 -52q-16 -39 -49.5 -69t-77 -47t-92.5 -17q-65 0 -119 25t-90 76l28 27v-116h-111v117l26 -28q-22 -33 -51 -55.5t-65 -34t-80 -11.5zM250 88 q41 0 72.5 17.5t49 48.5t17.5 68v22l-137 -23q-39 -7 -58 -25t-19 -47q0 -28 21.5 -44.5t53.5 -16.5zM533 335h256q-3 33 -19.5 59t-44 40t-61.5 14q-33 0 -60.5 -13t-46 -38.5t-24.5 -61.5z"></glyph>
      <glyph glyph-name="ccedilla" unicode="ç" d="M323 -12q-81 0 -145.5 37.5t-101.5 102t-37 145.5t37 145t101.5 101t145.5 37q58 0 108 -20.5t86.5 -56t52.5 -84.5l-115 -50q-15 41 -50.5 66t-81.5 25q-43 0 -76.5 -21t-52.5 -58t-19 -85t19 -85t52.5 -58t76.5 -21q47 0 82 25t50 67l115 -52q-16 -46 -52 -82.5 t-86 -57t-109 -20.5zM333 -237q-26 0 -58.5 8.5t-54.5 24.5l28 75q15 -10 33 -15.5t35 -5.5q22 0 34 9t12 25q0 19 -24 30.5t-70 16.5l21 79h77l-9 -40q52 -7 82 -32.5t30 -63.5q0 -51 -37 -81t-99 -30z"></glyph>
      <glyph glyph-name="egrave" unicode="è" d="M319 -12q-84 0 -147 38t-98 103t-35 144q0 82 35.5 145.5t97 100.5t137.5 37q64 0 112.5 -21t82.5 -58t52 -84.5t18 -102.5q0 -14 -1.5 -29t-5.5 -26h-420v100h346l-62 -47q9 46 -4.5 82t-44 57t-73.5 21q-41 0 -73 -20.5t-48.5 -60t-12.5 -95.5q-4 -50 13.5 -88.5 t52 -59.5t79.5 -21t76.5 19t49.5 51l106 -52q-16 -39 -50 -69t-80.5 -47t-102.5 -17zM242 640l-106 173h170l65 -173h-129z"></glyph>
      <glyph glyph-name="eacute" unicode="é" d="M319 -12q-84 0 -147 38t-98 103t-35 144q0 82 35.5 145.5t97 100.5t137.5 37q64 0 112.5 -21t82.5 -58t52 -84.5t18 -102.5q0 -14 -1.5 -29t-5.5 -26h-420v100h346l-62 -47q9 46 -4.5 82t-44 57t-73.5 21q-41 0 -73 -20.5t-48.5 -60t-12.5 -95.5q-4 -50 13.5 -88.5 t52 -59.5t79.5 -21t76.5 19t49.5 51l106 -52q-16 -39 -50 -69t-80.5 -47t-102.5 -17zM242 640l65 173h170l-106 -173h-129z"></glyph>
      <glyph glyph-name="ecircumflex" unicode="ê" d="M319 -12q-84 0 -147 38t-98 103t-35 144q0 82 35.5 145.5t97 100.5t137.5 37q64 0 112.5 -21t82.5 -58t52 -84.5t18 -102.5q0 -14 -1.5 -29t-5.5 -26h-420v100h346l-62 -47q9 46 -4.5 82t-44 57t-73.5 21q-41 0 -73 -20.5t-48.5 -60t-12.5 -95.5q-4 -50 13.5 -88.5 t52 -59.5t79.5 -21t76.5 19t49.5 51l106 -52q-16 -39 -50 -69t-80.5 -47t-102.5 -17zM112 640l117 165h155l118 -165h-130l-65 90l-65 -90h-130z"></glyph>
      <glyph glyph-name="edieresis" unicode="ë" d="M319 -12q-84 0 -147 38t-98 103t-35 144q0 82 35.5 145.5t97 100.5t137.5 37q64 0 112.5 -21t82.5 -58t52 -84.5t18 -102.5q0 -14 -1.5 -29t-5.5 -26h-420v100h346l-62 -47q9 46 -4.5 82t-44 57t-73.5 21q-41 0 -73 -20.5t-48.5 -60t-12.5 -95.5q-4 -50 13.5 -88.5 t52 -59.5t79.5 -21t76.5 19t49.5 51l106 -52q-16 -39 -50 -69t-80.5 -47t-102.5 -17zM130 640v138h137v-138h-137zM347 640v138h138v-138h-138z"></glyph>
      <glyph glyph-name="igrave" unicode="ì" d="M49 0v544h131v-544h-131zM50 640l-106 173h170l65 -173h-129z"></glyph>
      <glyph glyph-name="iacute" unicode="í" d="M49 0v544h131v-544h-131zM50 640l65 173h170l-106 -173h-129z"></glyph>
      <glyph glyph-name="icircumflex" unicode="î" d="M49 0v544h131v-544h-131zM-80 640l117 165h155l118 -165h-130l-65 90l-65 -90h-130z"></glyph>
      <glyph glyph-name="idieresis" unicode="ï" d="M49 0v544h131v-544h-131zM-63 640v138h137v-138h-137zM154 640v138h138v-138h-138z"></glyph>
      <glyph glyph-name="eth" unicode="ð" d="M328 -12q-59 0 -111.5 20.5t-92.5 58t-62.5 89.5t-22.5 113q0 79 37 141.5t100 99t143 36.5q36 0 66 -8.5t57 -26t52 -44.5l-23 -41q-2 47 -16.5 87t-40 71.5t-60 52.5t-74.5 32.5t-83 11.5q-26 0 -51.5 -4t-52.5 -13l-15 107q74 25 142 25q73 0 134.5 -24.5t109.5 -69 t81.5 -103.5t51 -127.5t17.5 -141.5q0 -115 -37.5 -190.5t-101.5 -113.5t-147 -38zM327 108q44 0 77.5 21t53 57.5t19.5 81.5t-18.5 80.5t-52 56.5t-79.5 21q-45 0 -79.5 -20.5t-53.5 -56.5t-19 -81q0 -47 20 -83t54.5 -56.5t77.5 -20.5zM222 563v60l340 131v-60z"></glyph>
      <glyph glyph-name="ntilde" unicode="ñ" d="M61 0v544h123v-107l-10 19q19 49 62.5 74.5t101.5 25.5q60 0 106.5 -26t72.5 -72.5t26 -107.5v-350h-131v319q0 36 -14 62t-38.5 40.5t-57.5 14.5q-32 0 -57 -14.5t-39 -40.5t-14 -62v-319h-131zM369 640q-27 0 -45.5 8.5t-31.5 19t-26 19t-30 8.5t-26 -12.5t-9 -38.5 h-101q0 80 36 117.5t87 37.5q28 0 47 -8t33 -19t26.5 -19t27.5 -8q20 0 28 13.5t8 36.5h101q-1 -76 -37 -115.5t-88 -39.5z"></glyph>
      <glyph glyph-name="ograve" unicode="ò" d="M327 -12q-80 0 -145.5 37t-104 101t-38.5 146t38.5 146t103.5 101t146 37q80 0 145 -37t103.5 -100.5t38.5 -146.5q0 -82 -39 -146t-104 -101t-144 -37zM327 108q44 0 77.5 21t53 58.5t19.5 84.5q0 48 -19.5 84.5t-53 58t-77.5 21.5q-45 0 -79 -21.5t-53.5 -58 t-19.5 -84.5q0 -47 19.5 -84.5t53.5 -58.5t79 -21zM262 640l-106 173h170l65 -173h-129z"></glyph>
      <glyph glyph-name="oacute" unicode="ó" d="M327 -12q-80 0 -145.5 37t-104 101t-38.5 146t38.5 146t103.5 101t146 37q80 0 145 -37t103.5 -100.5t38.5 -146.5q0 -82 -39 -146t-104 -101t-144 -37zM327 108q44 0 77.5 21t53 58.5t19.5 84.5q0 48 -19.5 84.5t-53 58t-77.5 21.5q-45 0 -79 -21.5t-53.5 -58 t-19.5 -84.5q0 -47 19.5 -84.5t53.5 -58.5t79 -21zM262 640l65 173h170l-106 -173h-129z"></glyph>
      <glyph glyph-name="ocircumflex" unicode="ô" d="M327 -12q-80 0 -145.5 37t-104 101t-38.5 146t38.5 146t103.5 101t146 37q80 0 145 -37t103.5 -100.5t38.5 -146.5q0 -82 -39 -146t-104 -101t-144 -37zM327 108q44 0 77.5 21t53 58.5t19.5 84.5q0 48 -19.5 84.5t-53 58t-77.5 21.5q-45 0 -79 -21.5t-53.5 -58 t-19.5 -84.5q0 -47 19.5 -84.5t53.5 -58.5t79 -21zM132 640l117 165h155l118 -165h-130l-65 90l-65 -90h-130z"></glyph>
      <glyph glyph-name="otilde" unicode="õ" d="M327 -12q-80 0 -145.5 37t-104 101t-38.5 146t38.5 146t103.5 101t146 37q80 0 145 -37t103.5 -100.5t38.5 -146.5q0 -82 -39 -146t-104 -101t-144 -37zM327 108q44 0 77.5 21t53 58.5t19.5 84.5q0 48 -19.5 84.5t-53 58t-77.5 21.5q-45 0 -79 -21.5t-53.5 -58 t-19.5 -84.5q0 -47 19.5 -84.5t53.5 -58.5t79 -21zM399 640q-27 0 -45.5 8.5t-31.5 19t-26 19t-30 8.5t-26 -12.5t-9 -38.5h-101q0 80 36 117.5t87 37.5q28 0 47 -8t33 -19t26.5 -19t27.5 -8q20 0 28 13.5t8 36.5h101q-1 -76 -37 -115.5t-88 -39.5z"></glyph>
      <glyph glyph-name="odieresis" unicode="ö" d="M327 -12q-80 0 -145.5 37t-104 101t-38.5 146t38.5 146t103.5 101t146 37q80 0 145 -37t103.5 -100.5t38.5 -146.5q0 -82 -39 -146t-104 -101t-144 -37zM327 108q44 0 77.5 21t53 58.5t19.5 84.5q0 48 -19.5 84.5t-53 58t-77.5 21.5q-45 0 -79 -21.5t-53.5 -58 t-19.5 -84.5q0 -47 19.5 -84.5t53.5 -58.5t79 -21zM150 640v138h137v-138h-137zM367 640v138h138v-138h-138z"></glyph>
      <glyph glyph-name="divide" unicode="÷" d="M80 194v113h500v-113h-500zM264 0v114h132v-114h-132zM264 386v114h132v-114h-132z"></glyph>
      <glyph glyph-name="oslash" unicode="ø" d="M17 0l469 544h150l-469 -544h-150zM327 -12q-80 0 -145.5 37t-104 101t-38.5 146t38.5 146t103.5 101t146 37q80 0 145 -37t103.5 -100.5t38.5 -146.5q0 -82 -39 -146t-104 -101t-144 -37zM327 108q44 0 77.5 21t53 58.5t19.5 84.5q0 48 -19.5 84.5t-53 58t-77.5 21.5 q-45 0 -79 -21.5t-53.5 -58t-19.5 -84.5q0 -47 19.5 -84.5t53.5 -58.5t79 -21z"></glyph>
      <glyph glyph-name="ugrave" unicode="ù" d="M255 -12q-63 0 -109.5 28t-71 78t-24.5 117v333h131v-322q0 -34 13.5 -59.5t39 -40t57.5 -14.5t57 14.5t39 40.5t14 62v319h131v-544h-124v107l11 -19q-19 -50 -62.5 -75t-101.5 -25zM233 640l-106 173h170l65 -173h-129z"></glyph>
      <glyph glyph-name="uacute" unicode="ú" d="M255 -12q-63 0 -109.5 28t-71 78t-24.5 117v333h131v-322q0 -34 13.5 -59.5t39 -40t57.5 -14.5t57 14.5t39 40.5t14 62v319h131v-544h-124v107l11 -19q-19 -50 -62.5 -75t-101.5 -25zM232 640l65 173h170l-106 -173h-129z"></glyph>
      <glyph glyph-name="ucircumflex" unicode="û" d="M255 -12q-63 0 -109.5 28t-71 78t-24.5 117v333h131v-322q0 -34 13.5 -59.5t39 -40t57.5 -14.5t57 14.5t39 40.5t14 62v319h131v-544h-124v107l11 -19q-19 -50 -62.5 -75t-101.5 -25zM102 640l117 165h155l118 -165h-130l-65 90l-65 -90h-130z"></glyph>
      <glyph glyph-name="udieresis" unicode="ü" d="M255 -12q-63 0 -109.5 28t-71 78t-24.5 117v333h131v-322q0 -34 13.5 -59.5t39 -40t57.5 -14.5t57 14.5t39 40.5t14 62v319h131v-544h-124v107l11 -19q-19 -50 -62.5 -75t-101.5 -25zM120 640v138h137v-138h-137zM337 640v138h138v-138h-138z"></glyph>
      <glyph glyph-name="yacute" unicode="ý" d="M127 -220q-22 0 -43 3.5t-38 12.5v109q13 -3 31.5 -6t34.5 -3q45 0 65.5 20.5t36.5 54.5l36 84l-2 -110l-237 599h141l166 -442h-50l165 442h142l-237 -599q-21 -52 -51 -89t-69.5 -56.5t-90.5 -19.5zM228 640l65 173h170l-106 -173h-129z"></glyph>
      <glyph glyph-name="thorn" unicode="þ" d="M61 -200v945h123v-309l-12 27q28 44 76 68.5t111 24.5q77 0 139 -38t98.5 -102t36.5 -144q0 -79 -36 -144t-98 -102.5t-141 -37.5q-59 0 -108.5 23.5t-78.5 67.5l21 26v-305h-131zM343 108q45 0 80 21t54.5 58t19.5 85t-19.5 84.5t-54.5 58t-80 21.5q-43 0 -77.5 -21 t-54 -58.5t-19.5 -84.5q0 -48 19.5 -85t54 -58t77.5 -21z"></glyph>
      <glyph glyph-name="ydieresis" unicode="ÿ" d="M127 -220q-22 0 -43 3.5t-38 12.5v109q13 -3 31.5 -6t34.5 -3q45 0 65.5 20.5t36.5 54.5l36 84l-2 -110l-237 599h141l166 -442h-50l165 442h142l-237 -599q-21 -52 -51 -89t-69.5 -56.5t-90.5 -19.5zM116 640v138h137v-138h-137zM333 640v138h138v-138h-138z"></glyph>
      <glyph glyph-name="Amacron" unicode="Ā" d="M11 0l257 745h176l257 -745h-148l-53 160h-288l-54 -160h-147zM251 280h210l-124 371h38zM195 862v108h322v-108h-322z"></glyph>
      <glyph glyph-name="amacron" unicode="ā" d="M226 -12q-57 0 -99 19t-65 54.5t-23 82.5q0 45 20 80.5t62 59.5t106 34l178 29v-100l-153 -26q-39 -7 -58 -25t-19 -47q0 -28 21.5 -44.5t53.5 -16.5q41 0 72.5 17.5t49 48.5t17.5 68v140q0 35 -27.5 58.5t-72.5 23.5q-42 0 -74.5 -22.5t-47.5 -59.5l-107 52 q16 43 50.5 74.5t81.5 49.5t102 18q67 0 118 -24.5t79.5 -68t28.5 -101.5v-362h-124v93l28 2q-21 -35 -50 -58.5t-66 -36t-82 -12.5zM134 660v108h322v-108h-322z"></glyph>
      <glyph glyph-name="Abreve" unicode="Ă" d="M11 0l257 745h176l257 -745h-148l-53 160h-288l-54 -160h-147zM251 280h210l-124 371h38zM356 845q-68 0 -112 24t-65.5 61.5t-22.5 79.5h129q1 -30 20 -47t51 -17q34 0 52.5 17t20.5 47h128q-1 -43 -22.5 -81t-65.5 -61t-113 -23z"></glyph>
      <glyph glyph-name="abreve" unicode="ă" d="M226 -12q-57 0 -99 19t-65 54.5t-23 82.5q0 45 20 80.5t62 59.5t106 34l178 29v-100l-153 -26q-39 -7 -58 -25t-19 -47q0 -28 21.5 -44.5t53.5 -16.5q41 0 72.5 17.5t49 48.5t17.5 68v140q0 35 -27.5 58.5t-72.5 23.5q-42 0 -74.5 -22.5t-47.5 -59.5l-107 52 q16 43 50.5 74.5t81.5 49.5t102 18q67 0 118 -24.5t79.5 -68t28.5 -101.5v-362h-124v93l28 2q-21 -35 -50 -58.5t-66 -36t-82 -12.5zM295 644q-68 0 -112 24t-65.5 61.5t-22.5 79.5h129q1 -30 20 -47t51 -17q34 0 52.5 17t20.5 47h128q-1 -43 -22.5 -81t-65.5 -61t-113 -23z "></glyph>
      <glyph glyph-name="Aogonek" unicode="Ą" d="M11 0l257 745h176l257 -745h-148l-53 160h-288l-54 -160h-147zM251 280h210l-124 371h38zM601 -237q-63 0 -101 34t-38 85q0 38 16.5 70.5t50 55t84.5 31.5h29v-39q-20 -4 -36.5 -18t-26.5 -34.5t-10 -46.5q0 -24 16.5 -37.5t36.5 -13.5q17 0 30 5t27 16l28 -75 q-21 -15 -46.5 -24t-59.5 -9z"></glyph>
      <glyph glyph-name="aogonek" unicode="ą" d="M226 -12q-57 0 -99 19t-65 54.5t-23 82.5q0 45 20 80.5t62 59.5t106 34l178 29v-100l-153 -26q-39 -7 -58 -25t-19 -47q0 -28 21.5 -44.5t53.5 -16.5q41 0 72.5 17.5t49 48.5t17.5 68v140q0 35 -27.5 58.5t-72.5 23.5q-42 0 -74.5 -22.5t-47.5 -59.5l-107 52 q16 43 50.5 74.5t81.5 49.5t102 18q67 0 118 -24.5t79.5 -68t28.5 -101.5v-362h-124v93l28 2q-21 -35 -50 -58.5t-66 -36t-82 -12.5zM469 -237q-63 0 -101 34t-38 85q0 38 16.5 70.5t50 55t84.5 31.5h29v-39q-20 -4 -36.5 -18t-26.5 -34.5t-10 -46.5q0 -24 16.5 -37.5 t36.5 -13.5q17 0 30 5t27 16l28 -75q-21 -15 -46.5 -24t-59.5 -9z"></glyph>
      <glyph glyph-name="Cacute" unicode="Ć" d="M422 -12q-80 0 -147.5 29t-118 81t-78.5 122t-28 153t27.5 153.5t78 122t118.5 80t148 28.5t143.5 -27t107.5 -71.5t63 -97.5l-122 -57q-21 56 -71 92.5t-121 36.5q-70 0 -123.5 -33t-83 -91t-29.5 -136t29.5 -136.5t83 -91.5t123.5 -33q71 0 121 36.5t71 92.5l122 -57 q-19 -53 -63 -97.5t-107.5 -71.5t-143.5 -27zM358 842l65 173h170l-106 -173h-129z"></glyph>
      <glyph glyph-name="cacute" unicode="ć" d="M323 -12q-81 0 -145.5 37.5t-101.5 102t-37 145.5t37 145t101.5 101t145.5 37q58 0 108 -20.5t86.5 -56t52.5 -84.5l-115 -50q-15 41 -50.5 66t-81.5 25q-43 0 -76.5 -21t-52.5 -58t-19 -85t19 -85t52.5 -58t76.5 -21q47 0 82 25t50 67l115 -52q-16 -46 -52 -82.5 t-86 -57t-109 -20.5zM258 640l65 173h170l-106 -173h-129z"></glyph>
      <glyph glyph-name="Ccircumflex" unicode="Ĉ" d="M422 -12q-80 0 -147.5 29t-118 81t-78.5 122t-28 153t27.5 153.5t78 122t118.5 80t148 28.5t143.5 -27t107.5 -71.5t63 -97.5l-122 -57q-21 56 -71 92.5t-121 36.5q-70 0 -123.5 -33t-83 -91t-29.5 -136t29.5 -136.5t83 -91.5t123.5 -33q71 0 121 36.5t71 92.5l122 -57 q-19 -53 -63 -97.5t-107.5 -71.5t-143.5 -27zM228 842l117 165h155l118 -165h-130l-65 90l-65 -90h-130z"></glyph>
      <glyph glyph-name="ccircumflex" unicode="ĉ" d="M323 -12q-81 0 -145.5 37.5t-101.5 102t-37 145.5t37 145t101.5 101t145.5 37q58 0 108 -20.5t86.5 -56t52.5 -84.5l-115 -50q-15 41 -50.5 66t-81.5 25q-43 0 -76.5 -21t-52.5 -58t-19 -85t19 -85t52.5 -58t76.5 -21q47 0 82 25t50 67l115 -52q-16 -46 -52 -82.5 t-86 -57t-109 -20.5zM128 640l117 165h155l118 -165h-130l-65 90l-65 -90h-130z"></glyph>
      <glyph glyph-name="Cdotaccent" unicode="Ċ" d="M422 -12q-80 0 -147.5 29t-118 81t-78.5 122t-28 153t27.5 153.5t78 122t118.5 80t148 28.5t143.5 -27t107.5 -71.5t63 -97.5l-122 -57q-21 56 -71 92.5t-121 36.5q-70 0 -123.5 -33t-83 -91t-29.5 -136t29.5 -136.5t83 -91.5t123.5 -33q71 0 121 36.5t71 92.5l122 -57 q-19 -53 -63 -97.5t-107.5 -71.5t-143.5 -27zM354 842v138h137v-138h-137z"></glyph>
      <glyph glyph-name="cdotaccent" unicode="ċ" d="M323 -12q-81 0 -145.5 37.5t-101.5 102t-37 145.5t37 145t101.5 101t145.5 37q58 0 108 -20.5t86.5 -56t52.5 -84.5l-115 -50q-15 41 -50.5 66t-81.5 25q-43 0 -76.5 -21t-52.5 -58t-19 -85t19 -85t52.5 -58t76.5 -21q47 0 82 25t50 67l115 -52q-16 -46 -52 -82.5 t-86 -57t-109 -20.5zM255 640v138h137v-138h-137z"></glyph>
      <glyph glyph-name="Ccaron" unicode="Č" d="M422 -12q-80 0 -147.5 29t-118 81t-78.5 122t-28 153t27.5 153.5t78 122t118.5 80t148 28.5t143.5 -27t107.5 -71.5t63 -97.5l-122 -57q-21 56 -71 92.5t-121 36.5q-70 0 -123.5 -33t-83 -91t-29.5 -136t29.5 -136.5t83 -91.5t123.5 -33q71 0 121 36.5t71 92.5l122 -57 q-19 -53 -63 -97.5t-107.5 -71.5t-143.5 -27zM344 842l-117 165h130l65 -90l65 90h130l-118 -165h-155z"></glyph>
      <glyph glyph-name="ccaron" unicode="č" d="M323 -12q-81 0 -145.5 37.5t-101.5 102t-37 145.5t37 145t101.5 101t145.5 37q58 0 108 -20.5t86.5 -56t52.5 -84.5l-115 -50q-15 41 -50.5 66t-81.5 25q-43 0 -76.5 -21t-52.5 -58t-19 -85t19 -85t52.5 -58t76.5 -21q47 0 82 25t50 67l115 -52q-16 -46 -52 -82.5 t-86 -57t-109 -20.5zM245 640l-117 165h130l65 -90l65 90h130l-118 -165h-155z"></glyph>
      <glyph glyph-name="Dcaron" unicode="Ď" d="M72 0v745h243q118 0 205.5 -47.5t135.5 -131t48 -193.5q0 -109 -48 -193.5t-135.5 -132t-205.5 -47.5h-243zM208 120h110q76 0 131.5 31.5t86.5 88t31 133.5q0 78 -31 134t-86.5 87t-131.5 31h-110v-505zM299 842l-117 165h130l65 -90l65 90h130l-118 -165h-155z"></glyph>
      <glyph glyph-name="dcaron" unicode="ď" d="M314 -12q-79 0 -141 37.5t-98 102.5t-36 144q0 80 36 144t98.5 102t139.5 38q62 0 110.5 -24.5t76.5 -68.5l-20 -27v321h131v-757h-124v105l14 -26q-28 -44 -78 -67.5t-109 -23.5zM328 108q45 0 79 21t53.5 58t19.5 85q0 47 -19.5 84.5t-53.5 58.5t-79 21 q-44 0 -79 -21.5t-54.5 -58t-19.5 -84.5t19.5 -85t54.5 -58t79 -21zM672 568v189h162l-43 -189h-119z"></glyph>
      <glyph glyph-name="Dcroat" unicode="Đ" d="M16 316v115h349v-115h-349zM72 0v745h243q118 0 205.5 -47.5t135.5 -131t48 -193.5q0 -109 -48 -193.5t-135.5 -132t-205.5 -47.5h-243zM208 120h110q76 0 131.5 31.5t86.5 88t31 133.5q0 78 -31 134t-86.5 87t-131.5 31h-110v-505z"></glyph>
      <glyph glyph-name="dcroat" unicode="đ" d="M398 590v100h295v-100h-295zM314 -12q-79 0 -141 37.5t-98 102.5t-36 144q0 80 36 144t98.5 102t139.5 38q62 0 110.5 -24.5t76.5 -68.5l-20 -27v321h131v-757h-124v105l14 -26q-28 -44 -78 -67.5t-109 -23.5zM328 108q45 0 79 21t53.5 58t19.5 85q0 47 -19.5 84.5 t-53.5 58.5t-79 21q-44 0 -79 -21.5t-54.5 -58t-19.5 -84.5t19.5 -85t54.5 -58t79 -21z"></glyph>
      <glyph glyph-name="Emacron" unicode="Ē" d="M72 0v745h495v-120h-359v-191h339v-120h-339v-194h359v-120h-495zM159 862v108h322v-108h-322z"></glyph>
      <glyph glyph-name="emacron" unicode="ē" d="M319 -12q-84 0 -147 38t-98 103t-35 144q0 82 35.5 145.5t97 100.5t137.5 37q64 0 112.5 -21t82.5 -58t52 -84.5t18 -102.5q0 -14 -1.5 -29t-5.5 -26h-420v100h346l-62 -47q9 46 -4.5 82t-44 57t-73.5 21q-41 0 -73 -20.5t-48.5 -60t-12.5 -95.5q-4 -50 13.5 -88.5 t52 -59.5t79.5 -21t76.5 19t49.5 51l106 -52q-16 -39 -50 -69t-80.5 -47t-102.5 -17zM146 660v108h322v-108h-322z"></glyph>
      <glyph glyph-name="Ebreve" unicode="Ĕ" d="M72 0v745h495v-120h-359v-191h339v-120h-339v-194h359v-120h-495zM320 845q-68 0 -112 24t-65.5 61.5t-22.5 79.5h129q1 -30 20 -47t51 -17q34 0 52.5 17t20.5 47h128q-1 -43 -22.5 -81t-65.5 -61t-113 -23z"></glyph>
      <glyph glyph-name="ebreve" unicode="ĕ" d="M319 -12q-84 0 -147 38t-98 103t-35 144q0 82 35.5 145.5t97 100.5t137.5 37q64 0 112.5 -21t82.5 -58t52 -84.5t18 -102.5q0 -14 -1.5 -29t-5.5 -26h-420v100h346l-62 -47q9 46 -4.5 82t-44 57t-73.5 21q-41 0 -73 -20.5t-48.5 -60t-12.5 -95.5q-4 -50 13.5 -88.5 t52 -59.5t79.5 -21t76.5 19t49.5 51l106 -52q-16 -39 -50 -69t-80.5 -47t-102.5 -17zM306 644q-68 0 -112 24t-65.5 61.5t-22.5 79.5h129q1 -30 20 -47t51 -17q34 0 52.5 17t20.5 47h128q-1 -43 -22.5 -81t-65.5 -61t-113 -23z"></glyph>
      <glyph glyph-name="Edotaccent" unicode="Ė" d="M72 0v745h495v-120h-359v-191h339v-120h-339v-194h359v-120h-495zM252 842v138h137v-138h-137z"></glyph>
      <glyph glyph-name="edotaccent" unicode="ė" d="M319 -12q-84 0 -147 38t-98 103t-35 144q0 82 35.5 145.5t97 100.5t137.5 37q64 0 112.5 -21t82.5 -58t52 -84.5t18 -102.5q0 -14 -1.5 -29t-5.5 -26h-420v100h346l-62 -47q9 46 -4.5 82t-44 57t-73.5 21q-41 0 -73 -20.5t-48.5 -60t-12.5 -95.5q-4 -50 13.5 -88.5 t52 -59.5t79.5 -21t76.5 19t49.5 51l106 -52q-16 -39 -50 -69t-80.5 -47t-102.5 -17zM238 640v138h137v-138h-137z"></glyph>
      <glyph glyph-name="Eogonek" unicode="Ę" d="M72 0v745h495v-120h-359v-191h339v-120h-339v-194h359v-120h-495zM440 -237q-63 0 -101 34t-38 85q0 38 16.5 70.5t50 55t84.5 31.5h29v-39q-20 -4 -36.5 -18t-26.5 -34.5t-10 -46.5q0 -24 16.5 -37.5t36.5 -13.5q17 0 30 5t27 16l28 -75q-21 -15 -46.5 -24t-59.5 -9z "></glyph>
      <glyph glyph-name="eogonek" unicode="ę" d="M319 -12q-84 0 -147 38t-98 103t-35 144q0 82 35.5 145.5t97 100.5t137.5 37q64 0 112.5 -21t82.5 -58t52 -84.5t18 -102.5q0 -14 -1.5 -29t-5.5 -26h-420v100h346l-62 -47q9 46 -4.5 82t-44 57t-73.5 21q-41 0 -73 -20.5t-48.5 -60t-12.5 -95.5q-4 -50 13.5 -88.5 t52 -59.5t79.5 -21t76.5 19t49.5 51l106 -52q-16 -39 -50 -69t-80.5 -47t-102.5 -17zM292 -237q-63 0 -101 34t-38 85q0 38 16.5 70.5t50 55t84.5 31.5h29v-39q-20 -4 -36.5 -18t-26.5 -34.5t-10 -46.5q0 -24 16.5 -37.5t36.5 -13.5q17 0 30 5t27 16l28 -75 q-21 -15 -46.5 -24t-59.5 -9z"></glyph>
      <glyph glyph-name="Ecaron" unicode="Ě" d="M72 0v745h495v-120h-359v-191h339v-120h-339v-194h359v-120h-495zM242 842l-117 165h130l65 -90l65 90h130l-118 -165h-155z"></glyph>
      <glyph glyph-name="ecaron" unicode="ě" d="M319 -12q-84 0 -147 38t-98 103t-35 144q0 82 35.5 145.5t97 100.5t137.5 37q64 0 112.5 -21t82.5 -58t52 -84.5t18 -102.5q0 -14 -1.5 -29t-5.5 -26h-420v100h346l-62 -47q9 46 -4.5 82t-44 57t-73.5 21q-41 0 -73 -20.5t-48.5 -60t-12.5 -95.5q-4 -50 13.5 -88.5 t52 -59.5t79.5 -21t76.5 19t49.5 51l106 -52q-16 -39 -50 -69t-80.5 -47t-102.5 -17zM229 640l-117 165h130l65 -90l65 90h130l-118 -165h-155z"></glyph>
      <glyph glyph-name="Gcircumflex" unicode="Ĝ" d="M425 -12q-80 0 -148 29t-119 81t-79.5 122t-28.5 153t27.5 153.5t78 122t118.5 80t148 28.5t143.5 -27t107.5 -71.5t63 -97.5l-121 -58q-21 58 -71 94t-122 36q-70 0 -123.5 -33t-83 -91t-29.5 -136t30.5 -136.5t84.5 -91.5t124 -33q57 0 105 22.5t77 64t29 98.5v57 l62 -54h-276v115h350v-75q0 -86 -29 -152t-78.5 -110.5t-111.5 -67t-128 -22.5zM210 842l117 165h155l118 -165h-130l-65 90l-65 -90h-130z"></glyph>
      <glyph glyph-name="gcircumflex" unicode="ĝ" d="M325 -220q-61 0 -113 20t-89.5 55.5t-54.5 83.5l122 46q12 -38 47.5 -61.5t87.5 -23.5q40 0 70.5 15t47.5 43.5t17 68.5v124l25 -30q-28 -49 -75 -74t-107 -25q-76 0 -136 35t-94 96t-34 137q0 77 34 137t93 94.5t134 34.5q61 0 107.5 -25.5t77.5 -73.5l-18 -33v120h124 v-517q0 -71 -34.5 -127t-94 -88t-137.5 -32zM319 143q42 0 73.5 18.5t49.5 51.5t18 76q0 42 -18.5 75.5t-50 52.5t-72.5 19t-74 -19t-51.5 -52.5t-18.5 -75.5t18.5 -75t51 -52t74.5 -19zM131 640l117 165h155l118 -165h-130l-65 90l-65 -90h-130z"></glyph>
      <glyph glyph-name="Gbreve" unicode="Ğ" d="M425 -12q-80 0 -148 29t-119 81t-79.5 122t-28.5 153t27.5 153.5t78 122t118.5 80t148 28.5t143.5 -27t107.5 -71.5t63 -97.5l-121 -58q-21 58 -71 94t-122 36q-70 0 -123.5 -33t-83 -91t-29.5 -136t30.5 -136.5t84.5 -91.5t124 -33q57 0 105 22.5t77 64t29 98.5v57 l62 -54h-276v115h350v-75q0 -86 -29 -152t-78.5 -110.5t-111.5 -67t-128 -22.5zM404 845q-68 0 -112 24t-65.5 61.5t-22.5 79.5h129q1 -30 20 -47t51 -17q34 0 52.5 17t20.5 47h128q-1 -43 -22.5 -81t-65.5 -61t-113 -23z"></glyph>
      <glyph glyph-name="gbreve" unicode="ğ" d="M325 -220q-61 0 -113 20t-89.5 55.5t-54.5 83.5l122 46q12 -38 47.5 -61.5t87.5 -23.5q40 0 70.5 15t47.5 43.5t17 68.5v124l25 -30q-28 -49 -75 -74t-107 -25q-76 0 -136 35t-94 96t-34 137q0 77 34 137t93 94.5t134 34.5q61 0 107.5 -25.5t77.5 -73.5l-18 -33v120h124 v-517q0 -71 -34.5 -127t-94 -88t-137.5 -32zM319 143q42 0 73.5 18.5t49.5 51.5t18 76q0 42 -18.5 75.5t-50 52.5t-72.5 19t-74 -19t-51.5 -52.5t-18.5 -75.5t18.5 -75t51 -52t74.5 -19zM326 644q-68 0 -112 24t-65.5 61.5t-22.5 79.5h129q1 -30 20 -47t51 -17q34 0 52.5 17 t20.5 47h128q-1 -43 -22.5 -81t-65.5 -61t-113 -23z"></glyph>
      <glyph glyph-name="Gdotaccent" unicode="Ġ" d="M425 -12q-80 0 -148 29t-119 81t-79.5 122t-28.5 153t27.5 153.5t78 122t118.5 80t148 28.5t143.5 -27t107.5 -71.5t63 -97.5l-121 -58q-21 58 -71 94t-122 36q-70 0 -123.5 -33t-83 -91t-29.5 -136t30.5 -136.5t84.5 -91.5t124 -33q57 0 105 22.5t77 64t29 98.5v57 l62 -54h-276v115h350v-75q0 -86 -29 -152t-78.5 -110.5t-111.5 -67t-128 -22.5zM336 842v138h137v-138h-137z"></glyph>
      <glyph glyph-name="gdotaccent" unicode="ġ" d="M325 -220q-61 0 -113 20t-89.5 55.5t-54.5 83.5l122 46q12 -38 47.5 -61.5t87.5 -23.5q40 0 70.5 15t47.5 43.5t17 68.5v124l25 -30q-28 -49 -75 -74t-107 -25q-76 0 -136 35t-94 96t-34 137q0 77 34 137t93 94.5t134 34.5q61 0 107.5 -25.5t77.5 -73.5l-18 -33v120h124 v-517q0 -71 -34.5 -127t-94 -88t-137.5 -32zM319 143q42 0 73.5 18.5t49.5 51.5t18 76q0 42 -18.5 75.5t-50 52.5t-72.5 19t-74 -19t-51.5 -52.5t-18.5 -75.5t18.5 -75t51 -52t74.5 -19zM258 640v138h137v-138h-137z"></glyph>
      <glyph glyph-name="uni0122" unicode="Ģ" d="M425 -12q-80 0 -148 29t-119 81t-79.5 122t-28.5 153t27.5 153.5t78 122t118.5 80t148 28.5t143.5 -27t107.5 -71.5t63 -97.5l-121 -58q-21 58 -71 94t-122 36q-70 0 -123.5 -33t-83 -91t-29.5 -136t30.5 -136.5t84.5 -91.5t124 -33q57 0 105 22.5t77 64t29 98.5v57 l62 -54h-276v115h350v-75q0 -86 -29 -152t-78.5 -110.5t-111.5 -67t-128 -22.5zM293 -257l29 187h167l-73 -187h-123z"></glyph>
      <glyph glyph-name="uni0123" unicode="ģ" d="M325 -220q-61 0 -113 20t-89.5 55.5t-54.5 83.5l122 46q12 -38 47.5 -61.5t87.5 -23.5q40 0 70.5 15t47.5 43.5t17 68.5v124l25 -30q-28 -49 -75 -74t-107 -25q-76 0 -136 35t-94 96t-34 137q0 77 34 137t93 94.5t134 34.5q61 0 107.5 -25.5t77.5 -73.5l-18 -33v120h124 v-517q0 -71 -34.5 -127t-94 -88t-137.5 -32zM319 143q42 0 73.5 18.5t49.5 51.5t18 76q0 42 -18.5 75.5t-50 52.5t-72.5 19t-74 -19t-51.5 -52.5t-18.5 -75.5t18.5 -75t51 -52t74.5 -19zM224 609l72 187h124l-29 -187h-167z"></glyph>
      <glyph glyph-name="Hcircumflex" unicode="Ĥ" d="M72 0v745h136v-325h317v325h137v-745h-137v300h-317v-300h-136zM172 842l117 165h155l118 -165h-130l-65 90l-65 -90h-130z"></glyph>
      <glyph glyph-name="hcircumflex" unicode="ĥ" d="M61 0v757h131v-320l-18 19q19 49 62.5 74.5t101.5 25.5q60 0 106.5 -26t72.5 -72.5t26 -107.5v-350h-131v319q0 36 -14 62t-38.5 40.5t-57.5 14.5q-32 0 -57 -14.5t-39 -40.5t-14 -62v-319h-131zM-68 842l117 165h155l118 -165h-130l-65 90l-65 -90h-130z"></glyph>
      <glyph glyph-name="Hbar" unicode="Ħ" d="M-7 537v116h747v-116h-747zM72 0v745h136v-325h317v325h137v-745h-137v300h-317v-300h-136z"></glyph>
      <glyph glyph-name="hbar" unicode="ħ" d="M-21 590v100h295v-100h-295zM61 0v757h131v-320l-18 19q19 49 62.5 74.5t101.5 25.5q60 0 106.5 -26t72.5 -72.5t26 -107.5v-350h-131v319q0 36 -14 62t-38.5 40.5t-57.5 14.5q-32 0 -57 -14.5t-39 -40.5t-14 -62v-319h-131z"></glyph>
      <glyph glyph-name="Itilde" unicode="Ĩ" d="M72 0v745h136v-745h-136zM212 842q-27 0 -45.5 8.5t-31.5 19t-26 19t-30 8.5t-26 -12.5t-9 -38.5h-101q0 80 36 117.5t87 37.5q28 0 47 -8t33 -19t26.5 -19t27.5 -8q20 0 28 13.5t8 36.5h101q-1 -76 -37 -115.5t-88 -39.5z"></glyph>
      <glyph glyph-name="itilde" unicode="ĩ" d="M49 0v544h131v-544h-131zM186 640q-27 0 -45.5 8.5t-31.5 19t-26 19t-30 8.5t-26 -12.5t-9 -38.5h-101q0 80 36 117.5t87 37.5q28 0 47 -8t33 -19t26.5 -19t27.5 -8q20 0 28 13.5t8 36.5h101q-1 -76 -37 -115.5t-88 -39.5z"></glyph>
      <glyph glyph-name="Imacron" unicode="Ī" d="M72 0v745h136v-745h-136zM-21 862v108h322v-108h-322z"></glyph>
      <glyph glyph-name="imacron" unicode="ī" d="M49 0v544h131v-544h-131zM-47 660v108h322v-108h-322z"></glyph>
      <glyph glyph-name="Ibreve" unicode="Ĭ" d="M72 0v745h136v-745h-136zM140 845q-68 0 -112 24t-65.5 61.5t-22.5 79.5h129q1 -30 20 -47t51 -17q34 0 52.5 17t20.5 47h128q-1 -43 -22.5 -81t-65.5 -61t-113 -23z"></glyph>
      <glyph glyph-name="ibreve" unicode="ĭ" d="M49 0v544h131v-544h-131zM114 644q-68 0 -112 24t-65.5 61.5t-22.5 79.5h129q1 -30 20 -47t51 -17q34 0 52.5 17t20.5 47h128q-1 -43 -22.5 -81t-65.5 -61t-113 -23z"></glyph>
      <glyph glyph-name="Iogonek" unicode="Į" d="M72 0v745h136v-745h-136zM136 -237q-63 0 -101 34t-38 85q0 38 16.5 70.5t50 55t84.5 31.5h29v-39q-20 -4 -36.5 -18t-26.5 -34.5t-10 -46.5q0 -24 16.5 -37.5t36.5 -13.5q17 0 30 5t27 16l28 -75q-21 -15 -46.5 -24t-59.5 -9z"></glyph>
      <glyph glyph-name="iogonek" unicode="į" d="M49 0v544h131v-544h-131zM46 640v138h137v-138h-137zM107 -237q-63 0 -101 34t-38 85q0 38 16.5 70.5t50 55t84.5 31.5h29v-39q-20 -4 -36.5 -18t-26.5 -34.5t-10 -46.5q0 -24 16.5 -37.5t36.5 -13.5q17 0 30 5t27 16l28 -75q-21 -15 -46.5 -24t-59.5 -9z"></glyph>
      <glyph glyph-name="Idotaccent" unicode="İ" d="M72 0v745h136v-745h-136zM72 842v138h137v-138h-137z"></glyph>
      <glyph glyph-name="dotlessi" unicode="ı" d="M49 0v544h131v-544h-131z"></glyph>
      <glyph glyph-name="IJ" unicode="Ĳ" d="M72 0v745h136v-745h-136zM318 0v125h43q48 0 76.5 27.5t28.5 73.5v519h137v-514q0 -69 -29.5 -121t-84 -81t-128.5 -29h-43z"></glyph>
      <glyph glyph-name="ij" unicode="ĳ" d="M61 0v544h131v-544h-131zM61 605v140h131v-140h-131zM238 -221q-13 0 -27 1t-23 3v114q18 -3 36 -3q42 0 65.5 19.5t23.5 59.5v571h131v-571q0 -62 -25 -105.5t-71.5 -66t-109.5 -22.5zM313 605v140h131v-140h-131z"></glyph>
      <glyph glyph-name="Jcircumflex" unicode="Ĵ" d="M39 0v125h43q48 0 76.5 27.5t28.5 73.5v519h137v-514q0 -69 -29.5 -121t-84 -81t-128.5 -29h-43zM61 842l117 165h155l118 -165h-130l-65 90l-65 -90h-130z"></glyph>
      <glyph glyph-name="jcircumflex" unicode="ĵ" d="M-14 -221q-13 0 -27 1t-23 3v114q18 -3 36 -3q42 0 65.5 19.5t23.5 59.5v571h131v-571q0 -62 -25 -105.5t-71.5 -66t-109.5 -22.5zM-68 640l117 165h155l118 -165h-130l-65 90l-65 -90h-130z"></glyph>
      <glyph glyph-name="uni0136" unicode="Ķ" d="M72 0v745h136v-388l-37 13l317 375h171l-297 -352l8 96l298 -489h-160l-200 328l-100 -119v-209h-136zM228 -257l29 187h167l-73 -187h-123z"></glyph>
      <glyph glyph-name="uni0137" unicode="ķ" d="M61 0v757h131v-496l-50 15l256 268h163l-201 -219l205 -325h-150l-178 282l78 16l-164 -176l41 80v-202h-131zM177 -257l29 187h167l-73 -187h-123z"></glyph>
      <glyph glyph-name="kgreenlandic" unicode="ĸ" d="M416 0l-161 230l7 106l134 208h146l-168 -266l192 -278h-150zM61 0v544h131v-544h-131zM142 225v117h191v-117h-191z"></glyph>
      <glyph glyph-name="Lacute" unicode="Ĺ" d="M72 0v745h136v-625h319v-120h-455zM76 842l65 173h170l-106 -173h-129z"></glyph>
      <glyph glyph-name="lacute" unicode="ĺ" d="M61 0v757h131v-757h-131zM62 842l65 173h170l-106 -173h-129z"></glyph>
      <glyph glyph-name="uni013B" unicode="Ļ" d="M72 0v745h136v-625h319v-120h-455zM187 -257l29 187h167l-73 -187h-123z"></glyph>
      <glyph glyph-name="uni013C" unicode="ļ" d="M61 0v757h131v-757h-131zM15 -257l29 187h167l-73 -187h-123z"></glyph>
      <glyph glyph-name="Lcaron" unicode="Ľ" d="M72 0v745h136v-625h319v-120h-455zM368 568v189h162l-43 -189h-119z"></glyph>
      <glyph glyph-name="lcaron" unicode="ľ" d="M61 0v757h131v-757h-131zM253 568v189h162l-43 -189h-119z"></glyph>
      <glyph glyph-name="Ldot" unicode="Ŀ" d="M368 299q-30 0 -51.5 21.5t-21.5 51.5q0 31 21.5 51.5t51.5 20.5t51 -20.5t21 -51.5t-21 -52t-51 -21zM72 0v745h136v-625h319v-120h-455z"></glyph>
      <glyph glyph-name="ldot" unicode="ŀ" d="M325 299q-30 0 -51.5 21.5t-21.5 51.5t21.5 51t51.5 21t51 -21t21 -51q0 -31 -21 -52t-51 -21zM61 0v757h131v-757h-131z"></glyph>
      <glyph glyph-name="Lslash" unicode="Ł" d="M36 209v128l343 200v-128zM139 0v745h136v-625h319v-120h-455z"></glyph>
      <glyph glyph-name="lslash" unicode="ł" d="M30 241v128l297 174v-128zM114 0v757h131v-757h-131z"></glyph>
      <glyph glyph-name="Nacute" unicode="Ń" d="M72 0v745h106l410 -552l-55 -11v563h136v-745h-107l-404 556l50 11v-567h-136zM306 842l65 173h170l-106 -173h-129z"></glyph>
      <glyph glyph-name="nacute" unicode="ń" d="M61 0v544h123v-107l-10 19q19 49 62.5 74.5t101.5 25.5q60 0 106.5 -26t72.5 -72.5t26 -107.5v-350h-131v319q0 36 -14 62t-38.5 40.5t-57.5 14.5q-32 0 -57 -14.5t-39 -40.5t-14 -62v-319h-131zM232 640l65 173h170l-106 -173h-129z"></glyph>
      <glyph glyph-name="uni0145" unicode="Ņ" d="M72 0v745h106l410 -552l-55 -11v563h136v-745h-107l-404 556l50 11v-567h-136zM259 -257l29 187h167l-73 -187h-123z"></glyph>
      <glyph glyph-name="uni0146" unicode="ņ" d="M61 0v544h123v-107l-10 19q19 49 62.5 74.5t101.5 25.5q60 0 106.5 -26t72.5 -72.5t26 -107.5v-350h-131v319q0 36 -14 62t-38.5 40.5t-57.5 14.5q-32 0 -57 -14.5t-39 -40.5t-14 -62v-319h-131zM185 -257l29 187h167l-73 -187h-123z"></glyph>
      <glyph glyph-name="Ncaron" unicode="Ň" d="M72 0v745h106l410 -552l-55 -11v563h136v-745h-107l-404 556l50 11v-567h-136zM293 842l-117 165h130l65 -90l65 90h130l-118 -165h-155z"></glyph>
      <glyph glyph-name="ncaron" unicode="ň" d="M61 0v544h123v-107l-10 19q19 49 62.5 74.5t101.5 25.5q60 0 106.5 -26t72.5 -72.5t26 -107.5v-350h-131v319q0 36 -14 62t-38.5 40.5t-57.5 14.5q-32 0 -57 -14.5t-39 -40.5t-14 -62v-319h-131zM219 640l-117 165h130l65 -90l65 90h130l-118 -165h-155z"></glyph>
      <glyph glyph-name="Eng" unicode="Ŋ" d="M463 -221q-13 0 -27 1t-23 3v115q18 -3 36 -3q42 0 65 19t23 59v120l35 -107l-399 550l35 11v-547h-136v745h106l391 -527l-36 -11v538h136v-772q0 -62 -25 -105.5t-71.5 -66t-109.5 -22.5z"></glyph>
      <glyph glyph-name="eng" unicode="ŋ" d="M331 -221q-13 0 -27 1t-24 3v114q18 -3 36 -3q43 0 66 19.5t23 59.5v346q0 36 -13.5 62t-38.5 40.5t-58 14.5q-32 0 -57 -14.5t-39 -40.5t-14 -62v-319h-131v544h124v-107l-11 19q20 49 63 74.5t101 25.5q61 0 107 -26t72 -72.5t26 -107.5v-377q0 -62 -25 -105.5t-71 -66 t-109 -22.5z"></glyph>
      <glyph glyph-name="Omacron" unicode="Ō" d="M439 -12q-82 0 -153 29t-124 81t-82.5 122.5t-29.5 152.5q0 83 29 153t82 122t124 80.5t154 28.5t154 -29t124 -80.5t82.5 -121.5t29.5 -153q0 -82 -30 -152.5t-83 -122.5t-123.5 -81t-153.5 -29zM439 112q55 0 101 19.5t80.5 54.5t53 83t18.5 104t-18.5 103.5t-53 83 t-80.5 54.5t-101 19q-54 0 -100 -19t-80.5 -54.5t-53.5 -83t-19 -103.5t19 -104t53.5 -83t80.5 -54.5t100 -19.5zM278 862v108h322v-108h-322z"></glyph>
      <glyph glyph-name="omacron" unicode="ō" d="M327 -12q-80 0 -145.5 37t-104 101t-38.5 146t38.5 146t103.5 101t146 37q80 0 145 -37t103.5 -100.5t38.5 -146.5q0 -82 -39 -146t-104 -101t-144 -37zM327 108q44 0 77.5 21t53 58.5t19.5 84.5q0 48 -19.5 84.5t-53 58t-77.5 21.5q-45 0 -79 -21.5t-53.5 -58 t-19.5 -84.5q0 -47 19.5 -84.5t53.5 -58.5t79 -21zM166 660v108h322v-108h-322z"></glyph>
      <glyph glyph-name="Obreve" unicode="Ŏ" d="M439 -12q-82 0 -153 29t-124 81t-82.5 122.5t-29.5 152.5q0 83 29 153t82 122t124 80.5t154 28.5t154 -29t124 -80.5t82.5 -121.5t29.5 -153q0 -82 -30 -152.5t-83 -122.5t-123.5 -81t-153.5 -29zM439 112q55 0 101 19.5t80.5 54.5t53 83t18.5 104t-18.5 103.5t-53 83 t-80.5 54.5t-101 19q-54 0 -100 -19t-80.5 -54.5t-53.5 -83t-19 -103.5t19 -104t53.5 -83t80.5 -54.5t100 -19.5zM439 845q-68 0 -112 24t-65.5 61.5t-22.5 79.5h129q1 -30 20 -47t51 -17q34 0 52.5 17t20.5 47h128q-1 -43 -22.5 -81t-65.5 -61t-113 -23z"></glyph>
      <glyph glyph-name="obreve" unicode="ŏ" d="M327 -12q-80 0 -145.5 37t-104 101t-38.5 146t38.5 146t103.5 101t146 37q80 0 145 -37t103.5 -100.5t38.5 -146.5q0 -82 -39 -146t-104 -101t-144 -37zM327 108q44 0 77.5 21t53 58.5t19.5 84.5q0 48 -19.5 84.5t-53 58t-77.5 21.5q-45 0 -79 -21.5t-53.5 -58 t-19.5 -84.5q0 -47 19.5 -84.5t53.5 -58.5t79 -21zM326 644q-68 0 -112 24t-65.5 61.5t-22.5 79.5h129q1 -30 20 -47t51 -17q34 0 52.5 17t20.5 47h128q-1 -43 -22.5 -81t-65.5 -61t-113 -23z"></glyph>
      <glyph glyph-name="Ohungarumlaut" unicode="Ő" d="M439 -12q-82 0 -153 29t-124 81t-82.5 122.5t-29.5 152.5q0 83 29 153t82 122t124 80.5t154 28.5t154 -29t124 -80.5t82.5 -121.5t29.5 -153q0 -82 -30 -152.5t-83 -122.5t-123.5 -81t-153.5 -29zM439 112q55 0 101 19.5t80.5 54.5t53 83t18.5 104t-18.5 103.5t-53 83 t-80.5 54.5t-101 19q-54 0 -100 -19t-80.5 -54.5t-53.5 -83t-19 -103.5t19 -104t53.5 -83t80.5 -54.5t100 -19.5zM265 842l42 173h168l-84 -173h-126zM486 842l43 173h168l-84 -173h-127z"></glyph>
      <glyph glyph-name="ohungarumlaut" unicode="ő" d="M327 -12q-80 0 -145.5 37t-104 101t-38.5 146t38.5 146t103.5 101t146 37q80 0 145 -37t103.5 -100.5t38.5 -146.5q0 -82 -39 -146t-104 -101t-144 -37zM327 108q44 0 77.5 21t53 58.5t19.5 84.5q0 48 -19.5 84.5t-53 58t-77.5 21.5q-45 0 -79 -21.5t-53.5 -58 t-19.5 -84.5q0 -47 19.5 -84.5t53.5 -58.5t79 -21zM153 640l42 173h168l-84 -173h-126zM374 640l43 173h168l-84 -173h-127z"></glyph>
      <glyph glyph-name="OE" unicode="Œ" d="M439 -12q-82 0 -153 29t-124 81t-82.5 122.5t-29.5 152.5q0 83 29 153t82 122t124 80.5t154 28.5q58 0 110.5 -15t97 -43.5t78.5 -69.5l-28 -27v143h496v-120h-359v-191h339v-120h-339v-194h359l-1 -120h-495v144l28 -26q-34 -42 -78.5 -71t-97 -44t-110.5 -15zM439 112 q55 0 101 19.5t80.5 54.5t53 83t18.5 104t-18.5 103.5t-53 83t-80.5 54.5t-101 19q-54 0 -100 -19t-80.5 -54.5t-53.5 -83t-19 -103.5t19 -104t53.5 -83t80.5 -54.5t100 -19.5z"></glyph>
      <glyph glyph-name="oe" unicode="œ" d="M327 -12q-80 0 -145.5 37t-104 101t-38.5 146t38.5 146t103.5 101t146 37q51 0 97 -16t83 -45t62 -69l-46 -1q23 40 57.5 69.5t78.5 45.5t93 16q64 0 112.5 -21t82.5 -58t52 -84.5t18 -102.5q0 -14 -1.5 -29t-5.5 -26h-392q5 -40 24 -69.5t50.5 -46t70.5 -16.5 q45 0 76.5 19t49.5 51l106 -52q-16 -39 -50 -69t-80.5 -47t-102.5 -17q-80 0 -141.5 35.5t-97.5 94.5l46 1q-25 -40 -62 -69.5t-83 -45.5t-97 -16zM327 108q44 0 77.5 21t53 58.5t19.5 84.5q0 48 -19.5 84.5t-53 58t-77.5 21.5q-45 0 -79 -21.5t-53.5 -58t-19.5 -84.5 q0 -47 19.5 -84.5t53.5 -58.5t79 -21zM621 335h256q-2 33 -18.5 59t-44 40t-62.5 14q-32 0 -59.5 -13t-46 -38.5t-25.5 -61.5z"></glyph>
      <glyph glyph-name="Racute" unicode="Ŕ" d="M72 0v745h277q76 0 134.5 -27.5t91.5 -80t33 -127.5q0 -77 -36.5 -131t-98.5 -80l171 -299h-154l-183 327l88 -52h-187v-275h-136zM208 395h143q37 0 64 14.5t42 40.5t15 60q0 35 -15 60.5t-42 40t-64 14.5h-143v-230zM265 842l65 173h170l-106 -173h-129z"></glyph>
      <glyph glyph-name="racute" unicode="ŕ" d="M61 0v544h123v-121l-10 18q19 61 59.5 85t97.5 24h32v-116h-47q-56 0 -90 -34.5t-34 -96.5v-303h-131zM147 640l65 173h170l-106 -173h-129z"></glyph>
      <glyph glyph-name="uni0156" unicode="Ŗ" d="M72 0v745h277q76 0 134.5 -27.5t91.5 -80t33 -127.5q0 -77 -36.5 -131t-98.5 -80l171 -299h-154l-183 327l88 -52h-187v-275h-136zM208 395h143q37 0 64 14.5t42 40.5t15 60q0 35 -15 60.5t-42 40t-64 14.5h-143v-230zM218 -257l29 187h167l-73 -187h-123z"></glyph>
      <glyph glyph-name="uni0157" unicode="ŗ" d="M61 0v544h123v-121l-10 18q19 61 59.5 85t97.5 24h32v-116h-47q-56 0 -90 -34.5t-34 -96.5v-303h-131zM15 -257l29 187h167l-73 -187h-123z"></glyph>
      <glyph glyph-name="Rcaron" unicode="Ř" d="M72 0v745h277q76 0 134.5 -27.5t91.5 -80t33 -127.5q0 -77 -36.5 -131t-98.5 -80l171 -299h-154l-183 327l88 -52h-187v-275h-136zM208 395h143q37 0 64 14.5t42 40.5t15 60q0 35 -15 60.5t-42 40t-64 14.5h-143v-230zM252 842l-117 165h130l65 -90l65 90h130l-118 -165 h-155z"></glyph>
      <glyph glyph-name="rcaron" unicode="ř" d="M61 0v544h123v-121l-10 18q19 61 59.5 85t97.5 24h32v-116h-47q-56 0 -90 -34.5t-34 -96.5v-303h-131zM134 640l-117 165h130l65 -90l65 90h130l-118 -165h-155z"></glyph>
      <glyph glyph-name="Sacute" unicode="Ś" d="M338 -12q-71 0 -131.5 26t-104 72.5t-63.5 108.5l113 49q27 -64 78 -100.5t115 -36.5q36 0 62.5 11.5t41 31.5t14.5 48q0 33 -19.5 54.5t-58.5 33.5l-143 46q-87 27 -131 81t-44 127q0 64 31.5 113t88 76.5t129.5 27.5q67 0 123 -23.5t96.5 -65t60.5 -97.5l-112 -50 q-22 56 -66 86.5t-102 30.5q-34 0 -60 -11.5t-40.5 -32t-14.5 -48.5q0 -31 20 -54.5t61 -36.5l137 -43q89 -29 133.5 -80t44.5 -126q0 -64 -33 -113t-91 -77t-135 -28zM255 842l65 173h170l-106 -173h-129z"></glyph>
      <glyph glyph-name="sacute" unicode="ś" d="M268 -12q-87 0 -151.5 41.5t-88.5 112.5l98 47q21 -46 58.5 -72t83.5 -26q36 0 57 16t21 42q0 16 -8.5 26.5t-23 18t-31.5 12.5l-89 25q-69 20 -104.5 61t-35.5 97q0 50 25.5 87.5t71 58.5t104.5 21q77 0 136 -37t84 -104l-100 -47q-14 37 -47 59t-74 22q-33 0 -52 -15 t-19 -39q0 -15 8 -26t22.5 -18t33.5 -13l87 -26q67 -20 103.5 -60t36.5 -98q0 -49 -26 -86.5t-72 -58.5t-108 -21zM193 640l65 173h170l-106 -173h-129z"></glyph>
      <glyph glyph-name="Scircumflex" unicode="Ŝ" d="M338 -12q-71 0 -131.5 26t-104 72.5t-63.5 108.5l113 49q27 -64 78 -100.5t115 -36.5q36 0 62.5 11.5t41 31.5t14.5 48q0 33 -19.5 54.5t-58.5 33.5l-143 46q-87 27 -131 81t-44 127q0 64 31.5 113t88 76.5t129.5 27.5q67 0 123 -23.5t96.5 -65t60.5 -97.5l-112 -50 q-22 56 -66 86.5t-102 30.5q-34 0 -60 -11.5t-40.5 -32t-14.5 -48.5q0 -31 20 -54.5t61 -36.5l137 -43q89 -29 133.5 -80t44.5 -126q0 -64 -33 -113t-91 -77t-135 -28zM125 842l117 165h155l118 -165h-130l-65 90l-65 -90h-130z"></glyph>
      <glyph glyph-name="scircumflex" unicode="ŝ" d="M268 -12q-87 0 -151.5 41.5t-88.5 112.5l98 47q21 -46 58.5 -72t83.5 -26q36 0 57 16t21 42q0 16 -8.5 26.5t-23 18t-31.5 12.5l-89 25q-69 20 -104.5 61t-35.5 97q0 50 25.5 87.5t71 58.5t104.5 21q77 0 136 -37t84 -104l-100 -47q-14 37 -47 59t-74 22q-33 0 -52 -15 t-19 -39q0 -15 8 -26t22.5 -18t33.5 -13l87 -26q67 -20 103.5 -60t36.5 -98q0 -49 -26 -86.5t-72 -58.5t-108 -21zM63 640l117 165h155l118 -165h-130l-65 90l-65 -90h-130z"></glyph>
      <glyph glyph-name="Scedilla" unicode="Ş" d="M338 -12q-71 0 -131.5 26t-104 72.5t-63.5 108.5l113 49q27 -64 78 -100.5t115 -36.5q36 0 62.5 11.5t41 31.5t14.5 48q0 33 -19.5 54.5t-58.5 33.5l-143 46q-87 27 -131 81t-44 127q0 64 31.5 113t88 76.5t129.5 27.5q67 0 123 -23.5t96.5 -65t60.5 -97.5l-112 -50 q-22 56 -66 86.5t-102 30.5q-34 0 -60 -11.5t-40.5 -32t-14.5 -48.5q0 -31 20 -54.5t61 -36.5l137 -43q89 -29 133.5 -80t44.5 -126q0 -64 -33 -113t-91 -77t-135 -28zM348 -237q-26 0 -58.5 8.5t-54.5 24.5l28 75q15 -10 33 -15.5t35 -5.5q22 0 34 9t12 25q0 19 -24 30.5 t-70 16.5l21 79h77l-9 -40q52 -7 82 -32.5t30 -63.5q0 -51 -37 -81t-99 -30z"></glyph>
      <glyph glyph-name="scedilla" unicode="ş" d="M268 -12q-87 0 -151.5 41.5t-88.5 112.5l98 47q21 -46 58.5 -72t83.5 -26q36 0 57 16t21 42q0 16 -8.5 26.5t-23 18t-31.5 12.5l-89 25q-69 20 -104.5 61t-35.5 97q0 50 25.5 87.5t71 58.5t104.5 21q77 0 136 -37t84 -104l-100 -47q-14 37 -47 59t-74 22q-33 0 -52 -15 t-19 -39q0 -15 8 -26t22.5 -18t33.5 -13l87 -26q67 -20 103.5 -60t36.5 -98q0 -49 -26 -86.5t-72 -58.5t-108 -21zM268 -237q-26 0 -58.5 8.5t-54.5 24.5l28 75q15 -10 33 -15.5t35 -5.5q22 0 34 9t12 25q0 19 -24 30.5t-70 16.5l21 79h77l-9 -40q52 -7 82 -32.5t30 -63.5 q0 -51 -37 -81t-99 -30z"></glyph>
      <glyph glyph-name="Scaron" unicode="Š" d="M338 -12q-71 0 -131.5 26t-104 72.5t-63.5 108.5l113 49q27 -64 78 -100.5t115 -36.5q36 0 62.5 11.5t41 31.5t14.5 48q0 33 -19.5 54.5t-58.5 33.5l-143 46q-87 27 -131 81t-44 127q0 64 31.5 113t88 76.5t129.5 27.5q67 0 123 -23.5t96.5 -65t60.5 -97.5l-112 -50 q-22 56 -66 86.5t-102 30.5q-34 0 -60 -11.5t-40.5 -32t-14.5 -48.5q0 -31 20 -54.5t61 -36.5l137 -43q89 -29 133.5 -80t44.5 -126q0 -64 -33 -113t-91 -77t-135 -28zM242 842l-117 165h130l65 -90l65 90h130l-118 -165h-155z"></glyph>
      <glyph glyph-name="scaron" unicode="š" d="M268 -12q-87 0 -151.5 41.5t-88.5 112.5l98 47q21 -46 58.5 -72t83.5 -26q36 0 57 16t21 42q0 16 -8.5 26.5t-23 18t-31.5 12.5l-89 25q-69 20 -104.5 61t-35.5 97q0 50 25.5 87.5t71 58.5t104.5 21q77 0 136 -37t84 -104l-100 -47q-14 37 -47 59t-74 22q-33 0 -52 -15 t-19 -39q0 -15 8 -26t22.5 -18t33.5 -13l87 -26q67 -20 103.5 -60t36.5 -98q0 -49 -26 -86.5t-72 -58.5t-108 -21zM180 640l-117 165h130l65 -90l65 90h130l-118 -165h-155z"></glyph>
      <glyph glyph-name="uni0162" unicode="Ţ" d="M204 0v625h-193v120h520v-120h-190v-625h-137zM281 -237q-26 0 -58.5 8.5t-54.5 24.5l28 75q15 -10 33 -15.5t35 -5.5q22 0 34 9t12 25q0 19 -24 30.5t-70 16.5l21 79h77l-9 -40q52 -7 82 -32.5t30 -63.5q0 -51 -37 -81t-99 -30z"></glyph>
      <glyph glyph-name="uni0163" unicode="ţ" d="M309 -6q-92 0 -142.5 50.5t-50.5 142.5v240h-94v117h10q40 0 62 21t22 61v42h131v-124h125v-117h-125v-233q0 -27 9.5 -46t30 -29t52.5 -10q7 0 16.5 1t18.5 2v-112q-14 -2 -32 -4t-33 -2zM312 -237q-26 0 -58.5 8.5t-54.5 24.5l28 75q15 -10 33 -15.5t35 -5.5q22 0 34 9 t12 25q0 19 -24 30.5t-70 16.5l21 79h77l-9 -40q52 -7 82 -32.5t30 -63.5q0 -51 -37 -81t-99 -30z"></glyph>
      <glyph glyph-name="Tcaron" unicode="Ť" d="M204 0v625h-193v120h520v-120h-190v-625h-137zM193 842l-117 165h130l65 -90l65 90h130l-118 -165h-155z"></glyph>
      <glyph glyph-name="tcaron" unicode="ť" d="M309 -6q-92 0 -142.5 50.5t-50.5 142.5v240h-94v117h10q40 0 62 21t22 61v42h131v-124h125v-117h-125v-233q0 -27 9.5 -46t30 -29t52.5 -10q7 0 16.5 1t18.5 2v-112q-14 -2 -32 -4t-33 -2zM310 568v189h162l-43 -189h-119z"></glyph>
      <glyph glyph-name="Tbar" unicode="Ŧ" d="M97 316v115h349v-115h-349zM204 0v625h-193v120h520v-120h-190v-625h-137z"></glyph>
      <glyph glyph-name="tbar" unicode="ŧ" d="M6 214v116h351v-116h-351zM309 -6q-92 0 -142.5 50.5t-50.5 142.5v240h-94v117h10q40 0 62 21t22 61v42h131v-124h125v-117h-125v-233q0 -27 9.5 -46t30 -29t52.5 -10q7 0 16.5 1t18.5 2v-112q-14 -2 -32 -4t-33 -2z"></glyph>
      <glyph glyph-name="Utilde" unicode="Ũ" d="M359 -12q-86 0 -152.5 36t-104.5 99t-38 143v479h136v-472q0 -46 20.5 -83t56.5 -57.5t82 -20.5q47 0 82.5 20.5t56 57.5t20.5 83v472h136v-479q0 -80 -38 -143t-104.5 -99t-152.5 -36zM431 842q-27 0 -45.5 8.5t-31.5 19t-26 19t-30 8.5t-26 -12.5t-9 -38.5h-101 q0 80 36 117.5t87 37.5q28 0 47 -8t33 -19t26.5 -19t27.5 -8q20 0 28 13.5t8 36.5h101q-1 -76 -37 -115.5t-88 -39.5z"></glyph>
      <glyph glyph-name="utilde" unicode="ũ" d="M255 -12q-63 0 -109.5 28t-71 78t-24.5 117v333h131v-322q0 -34 13.5 -59.5t39 -40t57.5 -14.5t57 14.5t39 40.5t14 62v319h131v-544h-124v107l11 -19q-19 -50 -62.5 -75t-101.5 -25zM369 640q-27 0 -45.5 8.5t-31.5 19t-26 19t-30 8.5t-26 -12.5t-9 -38.5h-101 q0 80 36 117.5t87 37.5q28 0 47 -8t33 -19t26.5 -19t27.5 -8q20 0 28 13.5t8 36.5h101q-1 -76 -37 -115.5t-88 -39.5z"></glyph>
      <glyph glyph-name="Umacron" unicode="Ū" d="M359 -12q-86 0 -152.5 36t-104.5 99t-38 143v479h136v-472q0 -46 20.5 -83t56.5 -57.5t82 -20.5q47 0 82.5 20.5t56 57.5t20.5 83v472h136v-479q0 -80 -38 -143t-104.5 -99t-152.5 -36zM198 862v108h322v-108h-322z"></glyph>
      <glyph glyph-name="umacron" unicode="ū" d="M255 -12q-63 0 -109.5 28t-71 78t-24.5 117v333h131v-322q0 -34 13.5 -59.5t39 -40t57.5 -14.5t57 14.5t39 40.5t14 62v319h131v-544h-124v107l11 -19q-19 -50 -62.5 -75t-101.5 -25zM136 660v108h322v-108h-322z"></glyph>
      <glyph glyph-name="Ubreve" unicode="Ŭ" d="M359 -12q-86 0 -152.5 36t-104.5 99t-38 143v479h136v-472q0 -46 20.5 -83t56.5 -57.5t82 -20.5q47 0 82.5 20.5t56 57.5t20.5 83v472h136v-479q0 -80 -38 -143t-104.5 -99t-152.5 -36zM359 845q-68 0 -112 24t-65.5 61.5t-22.5 79.5h129q1 -30 20 -47t51 -17 q34 0 52.5 17t20.5 47h128q-1 -43 -22.5 -81t-65.5 -61t-113 -23z"></glyph>
      <glyph glyph-name="ubreve" unicode="ŭ" d="M255 -12q-63 0 -109.5 28t-71 78t-24.5 117v333h131v-322q0 -34 13.5 -59.5t39 -40t57.5 -14.5t57 14.5t39 40.5t14 62v319h131v-544h-124v107l11 -19q-19 -50 -62.5 -75t-101.5 -25zM297 644q-68 0 -112 24t-65.5 61.5t-22.5 79.5h129q1 -30 20 -47t51 -17q34 0 52.5 17 t20.5 47h128q-1 -43 -22.5 -81t-65.5 -61t-113 -23z"></glyph>
      <glyph glyph-name="Uring" unicode="Ů" d="M359 -12q-86 0 -152.5 36t-104.5 99t-38 143v479h136v-472q0 -46 20.5 -83t56.5 -57.5t82 -20.5q47 0 82.5 20.5t56 57.5t20.5 83v472h136v-479q0 -80 -38 -143t-104.5 -99t-152.5 -36zM360 800q-53 0 -89 33.5t-36 87.5q0 53 35.5 86.5t89.5 33.5q53 0 88.5 -33.5 t35.5 -86.5q0 -54 -35.5 -87.5t-88.5 -33.5zM360 878q18 0 29.5 12t11.5 31t-11.5 30.5t-29.5 11.5t-30.5 -11.5t-12.5 -30.5t12 -31t31 -12z"></glyph>
      <glyph glyph-name="uring" unicode="ů" d="M255 -12q-63 0 -109.5 28t-71 78t-24.5 117v333h131v-322q0 -34 13.5 -59.5t39 -40t57.5 -14.5t57 14.5t39 40.5t14 62v319h131v-544h-124v107l11 -19q-19 -50 -62.5 -75t-101.5 -25zM297 598q-53 0 -89 33.5t-36 87.5q0 53 35.5 86.5t89.5 33.5q53 0 88.5 -33.5 t35.5 -86.5q0 -54 -35.5 -87.5t-88.5 -33.5zM297 676q18 0 29.5 12t11.5 31t-11.5 30.5t-29.5 11.5t-30.5 -11.5t-12.5 -30.5t12 -31t31 -12z"></glyph>
      <glyph glyph-name="Uhungarumlaut" unicode="Ű" d="M359 -12q-86 0 -152.5 36t-104.5 99t-38 143v479h136v-472q0 -46 20.5 -83t56.5 -57.5t82 -20.5q47 0 82.5 20.5t56 57.5t20.5 83v472h136v-479q0 -80 -38 -143t-104.5 -99t-152.5 -36zM185 842l42 173h168l-84 -173h-126zM406 842l43 173h168l-84 -173h-127z"></glyph>
      <glyph glyph-name="uhungarumlaut" unicode="ű" d="M255 -12q-63 0 -109.5 28t-71 78t-24.5 117v333h131v-322q0 -34 13.5 -59.5t39 -40t57.5 -14.5t57 14.5t39 40.5t14 62v319h131v-544h-124v107l11 -19q-19 -50 -62.5 -75t-101.5 -25zM123 640l42 173h168l-84 -173h-126zM344 640l43 173h168l-84 -173h-127z"></glyph>
      <glyph glyph-name="Uogonek" unicode="Ų" d="M359 -12q-86 0 -152.5 36t-104.5 99t-38 143v479h136v-472q0 -46 20.5 -83t56.5 -57.5t82 -20.5q47 0 82.5 20.5t56 57.5t20.5 83v472h136v-479q0 -80 -38 -143t-104.5 -99t-152.5 -36zM352 -237q-63 0 -101 34t-38 85q0 38 16.5 70.5t50 55t84.5 31.5h29v-39 q-20 -4 -36.5 -18t-26.5 -34.5t-10 -46.5q0 -24 16.5 -37.5t36.5 -13.5q17 0 30 5t27 16l28 -75q-21 -15 -46.5 -24t-59.5 -9z"></glyph>
      <glyph glyph-name="uogonek" unicode="ų" d="M255 -12q-63 0 -109.5 28t-71 78t-24.5 117v333h131v-322q0 -34 13.5 -59.5t39 -40t57.5 -14.5t57 14.5t39 40.5t14 62v319h131v-544h-124v107l11 -19q-19 -50 -62.5 -75t-101.5 -25zM481 -237q-63 0 -101 34t-38 85q0 38 16.5 70.5t50 55t84.5 31.5h29v-39 q-20 -4 -36.5 -18t-26.5 -34.5t-10 -46.5q0 -24 16.5 -37.5t36.5 -13.5q17 0 30 5t27 16l28 -75q-21 -15 -46.5 -24t-59.5 -9z"></glyph>
      <glyph glyph-name="Wcircumflex" unicode="Ŵ" d="M211 0l-200 745h146l157 -635h-38l164 635h141l163 -635h-38l157 635h146l-200 -745h-156l-165 618h44l-165 -618h-156zM316 842l117 165h155l118 -165h-130l-65 90l-65 -90h-130z"></glyph>
      <glyph glyph-name="wcircumflex" unicode="ŵ" d="M198 0l-187 544h138l137 -413l-48 1l146 412h116l145 -412l-48 -1l137 413h138l-187 -544h-117l-148 431h44l-150 -431h-116zM247 640l117 165h155l118 -165h-130l-65 90l-65 -90h-130z"></glyph>
      <glyph glyph-name="Ycircumflex" unicode="Ŷ" d="M262 0v330l-251 415h155l192 -324h-55l191 324h155l-250 -414v-331h-137zM136 842l117 165h155l118 -165h-130l-65 90l-65 -90h-130z"></glyph>
      <glyph glyph-name="ycircumflex" unicode="ŷ" d="M127 -220q-22 0 -43 3.5t-38 12.5v109q13 -3 31.5 -6t34.5 -3q45 0 65.5 20.5t36.5 54.5l36 84l-2 -110l-237 599h141l166 -442h-50l165 442h142l-237 -599q-21 -52 -51 -89t-69.5 -56.5t-90.5 -19.5zM98 640l117 165h155l118 -165h-130l-65 90l-65 -90h-130z"></glyph>
      <glyph glyph-name="Ydieresis" unicode="Ÿ" d="M262 0v330l-251 415h155l192 -324h-55l191 324h155l-250 -414v-331h-137zM153 842v138h137v-138h-137zM370 842v138h138v-138h-138z"></glyph>
      <glyph glyph-name="Zacute" unicode="Ź" d="M14 0v107l361 518h-340v120h513v-107l-360 -518h370v-120h-544zM222 842l65 173h170l-106 -173h-129z"></glyph>
      <glyph glyph-name="zacute" unicode="ź" d="M14 0v106l316 366l20 -45h-322v117h438v-107l-310 -366l-20 45h332v-116h-454zM179 640l65 173h170l-106 -173h-129z"></glyph>
      <glyph glyph-name="Zdotaccent" unicode="Ż" d="M14 0v107l361 518h-340v120h513v-107l-360 -518h370v-120h-544zM218 842v138h137v-138h-137z"></glyph>
      <glyph glyph-name="zdotaccent" unicode="ż" d="M14 0v106l316 366l20 -45h-322v117h438v-107l-310 -366l-20 45h332v-116h-454zM176 640v138h137v-138h-137z"></glyph>
      <glyph glyph-name="Zcaron" unicode="Ž" d="M14 0v107l361 518h-340v120h513v-107l-360 -518h370v-120h-544zM208 842l-117 165h130l65 -90l65 90h130l-118 -165h-155z"></glyph>
      <glyph glyph-name="zcaron" unicode="ž" d="M14 0v106l316 366l20 -45h-322v117h438v-107l-310 -366l-20 45h332v-116h-454zM166 640l-117 165h130l65 -90l65 90h130l-118 -165h-155z"></glyph>
      <glyph glyph-name="uni018F" unicode="Ə" d="M399 -12q-76 0 -140 26t-111 74t-72.5 113t-25.5 144q0 18 1.5 35t4.5 33h597v-109h-516l63 46l-2 -18t-1 -18q0 -58 26.5 -104t73 -72t106.5 -26q50 0 92 18t72.5 52t46.5 82.5t14 107.5q2 57 -15 105t-49 83t-77.5 54t-100.5 19q-66 0 -117 -28.5t-80 -79.5l-113 55 q25 53 71 93t108 62t132 22q84 0 153 -29.5t119.5 -82.5t78 -123t27.5 -152q0 -81 -27 -150t-76 -121.5t-116 -81.5t-147 -29z"></glyph>
      <glyph glyph-name="florin" unicode="ƒ" d="M145 -12q-12 0 -26.5 1.5t-24.5 3.5v113l18 -2t16 -1q43 0 67.5 22t24.5 76v115h-121v114h121v122q0 69 25.5 114.5t72 68t108.5 22.5q12 0 26.5 -1.5t23.5 -3.5v-113q-9 2 -17.5 2.5t-15.5 0.5q-44 0 -68 -21.5t-24 -76.5v-114h120v-114h-120v-123q0 -69 -26 -114 t-72 -68t-108 -23z"></glyph>
      <glyph glyph-name="Ohorn" unicode="Ơ" d="M439 -12q-82 0 -153 29t-124 81t-82.5 122.5t-29.5 152.5q0 83 29 153t82 122t124 80.5t154 28.5h203q8 0 19 2t20 12.5t9 35.5q0 17 -6 37.5t-15 39.5h118q10 -21 16.5 -41.5t6.5 -47.5q0 -69 -26 -100t-68 -31h-76l29 24q49 -34 85 -82.5t55.5 -107t19.5 -125.5 q0 -82 -30 -152.5t-83 -122.5t-123.5 -81t-153.5 -29zM439 112q55 0 101 19.5t80.5 54.5t53 83t18.5 104t-18.5 103.5t-53 83t-80.5 54.5t-101 19q-54 0 -100 -19t-80.5 -54.5t-53.5 -83t-19 -103.5t19 -104t53.5 -83t80.5 -54.5t100 -19.5z"></glyph>
      <glyph glyph-name="ohorn" unicode="ơ" d="M327 -12q-80 0 -145.5 37t-104 101t-38.5 146t38.5 146t103.5 101t146 37h106q8 0 19.5 2t20 12.5t8.5 35.5q0 17 -6 37t-15 40h113q10 -21 16.5 -41.5t6.5 -47.5q0 -57 -29 -88t-76 -41l9 36q51 -37 82.5 -96t31.5 -133q0 -82 -39 -146t-104 -101t-144 -37zM327 108 q44 0 77.5 21t53 58.5t19.5 84.5q0 48 -19.5 84.5t-53 58t-77.5 21.5q-45 0 -79 -21.5t-53.5 -58t-19.5 -84.5q0 -47 19.5 -84.5t53.5 -58.5t79 -21z"></glyph>
      <glyph glyph-name="Uhorn" unicode="Ư" d="M359 -12q-86 0 -152.5 36t-104.5 99t-38 143v479h136v-472q0 -46 20.5 -83t56.5 -57.5t82 -20.5q47 0 82.5 20.5t56 57.5t20.5 83v472h120q13 0 28 8.5t15 41.5q0 17 -6.5 37.5t-14.5 39.5h117q11 -21 17.5 -41.5t6.5 -47.5q0 -69 -37 -101.5t-103 -32.5h-7v-383 q0 -80 -38 -143t-104.5 -99t-152.5 -36z"></glyph>
      <glyph glyph-name="uhorn" unicode="ư" d="M255 -12q-63 0 -109.5 28t-71 78t-24.5 117v333h131v-322q0 -34 13.5 -59.5t39 -40t57.5 -14.5t57 14.5t39 40.5t14 62v319h93q13 0 27.5 8.5t14.5 41.5q0 17 -6 37t-14 40h113q10 -21 16.5 -41.5t6.5 -47.5q0 -73 -46.5 -104t-118.5 -26l45 58v-510h-124v66 q-21 -39 -61 -58.5t-92 -19.5z"></glyph>
      <glyph glyph-name="uni01C4" unicode="Ǆ" d="M72 0v745h243q118 0 205.5 -47.5t135.5 -131t48 -193.5q0 -109 -48 -193.5t-135.5 -132t-205.5 -47.5h-243zM208 120h110q76 0 131.5 31.5t86.5 88t31 133.5q0 78 -31 134t-86.5 87t-131.5 31h-110v-505zM754 0v107l361 518h-340v120h513v-107l-360 -518h370v-120h-544z M948 842l-117 165h130l65 -90l65 90h130l-118 -165h-155z"></glyph>
      <glyph glyph-name="uni01C5" unicode="ǅ" d="M72 0v745h243q118 0 205.5 -47.5t135.5 -131t48 -193.5q0 -109 -48 -193.5t-135.5 -132t-205.5 -47.5h-243zM208 120h110q76 0 131.5 31.5t86.5 88t31 133.5q0 78 -31 134t-86.5 87t-131.5 31h-110v-505zM754 0v106l316 366l20 -45h-322v117h438v-107l-310 -366l-20 45 h332v-116h-454zM906 640l-117 165h130l65 -90l65 90h130l-118 -165h-155z"></glyph>
      <glyph glyph-name="uni01C6" unicode="ǆ" d="M314 -12q-79 0 -141 37.5t-98 102.5t-36 144q0 80 36 144t98.5 102t139.5 38q62 0 110.5 -24.5t76.5 -68.5l-20 -27v321h131v-757h-124v105l14 -26q-28 -44 -78 -67.5t-109 -23.5zM328 108q45 0 79 21t53.5 58t19.5 85q0 47 -19.5 84.5t-53.5 58.5t-79 21 q-44 0 -79 -21.5t-54.5 -58t-19.5 -84.5t19.5 -85t54.5 -58t79 -21zM686 0v106l316 366l20 -45h-322v117h438v-107l-310 -366l-20 45h332v-116h-454zM838 640l-117 165h130l65 -90l65 90h130l-118 -165h-155z"></glyph>
      <glyph glyph-name="uni01C7" unicode="Ǉ" d="M72 0v745h136v-625h319v-120h-455zM833 -12q-102 0 -172 52t-89 143l126 34q14 -51 50 -78t86 -27q37 0 63 14.5t40 42t14 64.5v512h136v-512q0 -71 -30 -126t-87 -87t-137 -32z"></glyph>
      <glyph glyph-name="uni01C8" unicode="ǈ" d="M72 0v745h136v-625h319v-120h-455zM529 -221q-13 0 -27 1t-23 3v114q18 -3 36 -3q42 0 65.5 19.5t23.5 59.5v571h131v-571q0 -62 -25 -105.5t-71.5 -66t-109.5 -22.5zM604 605v140h131v-140h-131z"></glyph>
      <glyph glyph-name="uni01C9" unicode="ǉ" d="M61 0v757h131v-757h-131zM238 -221q-13 0 -27 1t-23 3v114q18 -3 36 -3q42 0 65.5 19.5t23.5 59.5v571h131v-571q0 -62 -25 -105.5t-71.5 -66t-109.5 -22.5zM313 605v140h131v-140h-131z"></glyph>
      <glyph glyph-name="uni01CA" unicode="Ǌ" d="M72 0v745h106l410 -552l-55 -11v563h136v-745h-107l-404 556l50 11v-567h-136zM780 0v125h43q48 0 76.5 27.5t28.5 73.5v519h137v-514q0 -69 -29.5 -121t-84 -81t-128.5 -29h-43z"></glyph>
      <glyph glyph-name="uni01CB" unicode="ǋ" d="M72 0v745h106l410 -552l-55 -11v563h136v-745h-107l-404 556l50 11v-567h-136zM727 -221q-13 0 -27 1t-23 3v114q18 -3 36 -3q42 0 65.5 19.5t23.5 59.5v571h131v-571q0 -62 -25 -105.5t-71.5 -66t-109.5 -22.5zM802 605v140h131v-140h-131z"></glyph>
      <glyph glyph-name="uni01CC" unicode="ǌ" d="M61 0v544h123v-107l-10 19q19 49 62.5 74.5t101.5 25.5q60 0 106.5 -26t72.5 -72.5t26 -107.5v-350h-131v319q0 36 -14 62t-38.5 40.5t-57.5 14.5q-32 0 -57 -14.5t-39 -40.5t-14 -62v-319h-131zM579 -221q-13 0 -27 1t-23 3v114q18 -3 36 -3q42 0 65.5 19.5t23.5 59.5 v571h131v-571q0 -62 -25 -105.5t-71.5 -66t-109.5 -22.5zM654 605v140h131v-140h-131z"></glyph>
      <glyph glyph-name="Gcaron" unicode="Ǧ" d="M425 -12q-80 0 -148 29t-119 81t-79.5 122t-28.5 153t27.5 153.5t78 122t118.5 80t148 28.5t143.5 -27t107.5 -71.5t63 -97.5l-121 -58q-21 58 -71 94t-122 36q-70 0 -123.5 -33t-83 -91t-29.5 -136t30.5 -136.5t84.5 -91.5t124 -33q57 0 105 22.5t77 64t29 98.5v57 l62 -54h-276v115h350v-75q0 -86 -29 -152t-78.5 -110.5t-111.5 -67t-128 -22.5zM327 842l-117 165h130l65 -90l65 90h130l-118 -165h-155z"></glyph>
      <glyph glyph-name="gcaron" unicode="ǧ" d="M325 -220q-61 0 -113 20t-89.5 55.5t-54.5 83.5l122 46q12 -38 47.5 -61.5t87.5 -23.5q40 0 70.5 15t47.5 43.5t17 68.5v124l25 -30q-28 -49 -75 -74t-107 -25q-76 0 -136 35t-94 96t-34 137q0 77 34 137t93 94.5t134 34.5q61 0 107.5 -25.5t77.5 -73.5l-18 -33v120h124 v-517q0 -71 -34.5 -127t-94 -88t-137.5 -32zM319 143q42 0 73.5 18.5t49.5 51.5t18 76q0 42 -18.5 75.5t-50 52.5t-72.5 19t-74 -19t-51.5 -52.5t-18.5 -75.5t18.5 -75t51 -52t74.5 -19zM248 640l-117 165h130l65 -90l65 90h130l-118 -165h-155z"></glyph>
      <glyph glyph-name="uni01EA" unicode="Ǫ" d="M439 -12q-82 0 -153 29t-124 81t-82.5 122.5t-29.5 152.5q0 83 29 153t82 122t124 80.5t154 28.5t154 -29t124 -80.5t82.5 -121.5t29.5 -153q0 -82 -30 -152.5t-83 -122.5t-123.5 -81t-153.5 -29zM439 112q55 0 101 19.5t80.5 54.5t53 83t18.5 104t-18.5 103.5t-53 83 t-80.5 54.5t-101 19q-54 0 -100 -19t-80.5 -54.5t-53.5 -83t-19 -103.5t19 -104t53.5 -83t80.5 -54.5t100 -19.5zM462 -237q-63 0 -101 34t-38 85q0 38 16.5 70.5t50 55t84.5 31.5h29v-39q-20 -4 -36.5 -18t-26.5 -34.5t-10 -46.5q0 -24 16.5 -37.5t36.5 -13.5q17 0 30 5 t27 16l28 -75q-21 -15 -46.5 -24t-59.5 -9z"></glyph>
      <glyph glyph-name="uni01EB" unicode="ǫ" d="M327 -12q-80 0 -145.5 37t-104 101t-38.5 146t38.5 146t103.5 101t146 37q80 0 145 -37t103.5 -100.5t38.5 -146.5q0 -82 -39 -146t-104 -101t-144 -37zM327 108q44 0 77.5 21t53 58.5t19.5 84.5q0 48 -19.5 84.5t-53 58t-77.5 21.5q-45 0 -79 -21.5t-53.5 -58 t-19.5 -84.5q0 -47 19.5 -84.5t53.5 -58.5t79 -21zM350 -237q-63 0 -101 34t-38 85q0 38 16.5 70.5t50 55t84.5 31.5h29v-39q-20 -4 -36.5 -18t-26.5 -34.5t-10 -46.5q0 -24 16.5 -37.5t36.5 -13.5q17 0 30 5t27 16l28 -75q-21 -15 -46.5 -24t-59.5 -9z"></glyph>
      <glyph glyph-name="Aringacute" unicode="Ǻ" d="M11 0l257 745h176l257 -745h-148l-53 160h-288l-54 -160h-147zM251 280h210l-124 371h38zM357 800q-53 0 -89 33.5t-36 87.5q0 53 35.5 86.5t89.5 33.5q53 0 88.5 -33.5t35.5 -86.5q0 -54 -35.5 -87.5t-88.5 -33.5zM357 878q18 0 29.5 12t11.5 31t-11.5 30.5t-29.5 11.5 t-30.5 -11.5t-12.5 -30.5t12 -31t31 -12zM329 975l50 162h148l-82 -162h-116z"></glyph>
      <glyph glyph-name="aringacute" unicode="ǻ" d="M226 -12q-57 0 -99 19t-65 54.5t-23 82.5q0 45 20 80.5t62 59.5t106 34l178 29v-100l-153 -26q-39 -7 -58 -25t-19 -47q0 -28 21.5 -44.5t53.5 -16.5q41 0 72.5 17.5t49 48.5t17.5 68v140q0 35 -27.5 58.5t-72.5 23.5q-42 0 -74.5 -22.5t-47.5 -59.5l-107 52 q16 43 50.5 74.5t81.5 49.5t102 18q67 0 118 -24.5t79.5 -68t28.5 -101.5v-362h-124v93l28 2q-21 -35 -50 -58.5t-66 -36t-82 -12.5zM295 598q-53 0 -89 33.5t-36 87.5q0 53 35.5 86.5t89.5 33.5q53 0 88.5 -33.5t35.5 -86.5q0 -54 -35.5 -87.5t-88.5 -33.5zM295 676 q18 0 29.5 12t11.5 31t-11.5 30.5t-29.5 11.5t-30.5 -11.5t-12.5 -30.5t12 -31t31 -12zM267 773l50 162h148l-82 -162h-116z"></glyph>
      <glyph glyph-name="AEacute" unicode="Ǽ" d="M11 0l257 745h696v-120h-360v-191h340v-120h-340v-194h360l-1 -120h-495v160h-256l-54 -160h-147zM251 280h217v345h-101zM432 842l65 173h170l-106 -173h-129z"></glyph>
      <glyph glyph-name="aeacute" unicode="ǽ" d="M226 -12q-57 0 -99 19t-65 54.5t-23 82.5q0 45 20 80.5t62 59.5t106 34l162 26v18q0 35 -27.5 58.5t-72.5 23.5q-42 0 -74.5 -22.5t-47.5 -59.5l-107 52q16 43 50.5 74.5t81.5 49.5t102 18q71 0 124 -28.5t79 -76.5l-46 1q37 47 92 75.5t121 28.5q63 0 112 -21t83 -58 t51.5 -84.5t17.5 -102.5q0 -14 -1.5 -29t-4.5 -26h-392q4 -40 23 -69.5t50.5 -46t71.5 -16.5q45 0 76 19t50 51l106 -52q-16 -39 -49.5 -69t-77 -47t-92.5 -17q-65 0 -119 25t-90 76l28 27v-116h-111v117l26 -28q-22 -33 -51 -55.5t-65 -34t-80 -11.5zM250 88 q41 0 72.5 17.5t49 48.5t17.5 68v22l-137 -23q-39 -7 -58 -25t-19 -47q0 -28 21.5 -44.5t53.5 -16.5zM533 335h256q-3 33 -19.5 59t-44 40t-61.5 14q-33 0 -60.5 -13t-46 -38.5t-24.5 -61.5zM419 640l65 173h170l-106 -173h-129z"></glyph>
      <glyph glyph-name="Oslashacute" unicode="Ǿ" d="M58 0l610 745h152l-610 -745h-152zM439 -12q-82 0 -153 29t-124 81t-82.5 122.5t-29.5 152.5q0 83 29 153t82 122t124 80.5t154 28.5t154 -29t124 -80.5t82.5 -121.5t29.5 -153q0 -82 -30 -152.5t-83 -122.5t-123.5 -81t-153.5 -29zM439 112q55 0 101 19.5t80.5 54.5 t53 83t18.5 104t-18.5 103.5t-53 83t-80.5 54.5t-101 19q-54 0 -100 -19t-80.5 -54.5t-53.5 -83t-19 -103.5t19 -104t53.5 -83t80.5 -54.5t100 -19.5zM375 842l65 173h170l-106 -173h-129z"></glyph>
      <glyph glyph-name="oslashacute" unicode="ǿ" d="M17 0l469 544h150l-469 -544h-150zM327 -12q-80 0 -145.5 37t-104 101t-38.5 146t38.5 146t103.5 101t146 37q80 0 145 -37t103.5 -100.5t38.5 -146.5q0 -82 -39 -146t-104 -101t-144 -37zM327 108q44 0 77.5 21t53 58.5t19.5 84.5q0 48 -19.5 84.5t-53 58t-77.5 21.5 q-45 0 -79 -21.5t-53.5 -58t-19.5 -84.5q0 -47 19.5 -84.5t53.5 -58.5t79 -21zM262 640l65 173h170l-106 -173h-129z"></glyph>
      <glyph glyph-name="uni0200" unicode="Ȁ" d="M11 0l257 745h176l257 -745h-148l-53 160h-288l-54 -160h-147zM251 280h210l-124 371h38zM182 842l-106 176h168l65 -176h-127zM404 842l-107 176h168l65 -176h-126z"></glyph>
      <glyph glyph-name="uni0201" unicode="ȁ" d="M226 -12q-57 0 -99 19t-65 54.5t-23 82.5q0 45 20 80.5t62 59.5t106 34l178 29v-100l-153 -26q-39 -7 -58 -25t-19 -47q0 -28 21.5 -44.5t53.5 -16.5q41 0 72.5 17.5t49 48.5t17.5 68v140q0 35 -27.5 58.5t-72.5 23.5q-42 0 -74.5 -22.5t-47.5 -59.5l-107 52 q16 43 50.5 74.5t81.5 49.5t102 18q67 0 118 -24.5t79.5 -68t28.5 -101.5v-362h-124v93l28 2q-21 -35 -50 -58.5t-66 -36t-82 -12.5zM120 640l-106 176h168l65 -176h-127zM342 640l-107 176h168l65 -176h-126z"></glyph>
      <glyph glyph-name="uni0202" unicode="Ȃ" d="M11 0l257 745h176l257 -745h-148l-53 160h-288l-54 -160h-147zM251 280h210l-124 371h38zM156 842q1 42 22.5 79.5t65.5 61.5t112 24q69 0 113 -23t65.5 -60.5t22.5 -81.5h-128q-2 30 -20.5 47t-52.5 17q-32 0 -51 -17t-20 -47h-129z"></glyph>
      <glyph glyph-name="uni0203" unicode="ȃ" d="M226 -12q-57 0 -99 19t-65 54.5t-23 82.5q0 45 20 80.5t62 59.5t106 34l178 29v-100l-153 -26q-39 -7 -58 -25t-19 -47q0 -28 21.5 -44.5t53.5 -16.5q41 0 72.5 17.5t49 48.5t17.5 68v140q0 35 -27.5 58.5t-72.5 23.5q-42 0 -74.5 -22.5t-47.5 -59.5l-107 52 q16 43 50.5 74.5t81.5 49.5t102 18q67 0 118 -24.5t79.5 -68t28.5 -101.5v-362h-124v93l28 2q-21 -35 -50 -58.5t-66 -36t-82 -12.5zM95 640q1 42 22.5 79.5t65.5 61.5t112 24q69 0 113 -23t65.5 -60.5t22.5 -81.5h-128q-2 30 -20.5 47t-52.5 17q-32 0 -51 -17t-20 -47h-129 z"></glyph>
      <glyph glyph-name="uni0204" unicode="Ȅ" d="M72 0v745h495v-120h-359v-191h339v-120h-339v-194h359v-120h-495zM145 842l-106 176h168l65 -176h-127zM367 842l-107 176h168l65 -176h-126z"></glyph>
      <glyph glyph-name="uni0205" unicode="ȅ" d="M319 -12q-84 0 -147 38t-98 103t-35 144q0 82 35.5 145.5t97 100.5t137.5 37q64 0 112.5 -21t82.5 -58t52 -84.5t18 -102.5q0 -14 -1.5 -29t-5.5 -26h-420v100h346l-62 -47q9 46 -4.5 82t-44 57t-73.5 21q-41 0 -73 -20.5t-48.5 -60t-12.5 -95.5q-4 -50 13.5 -88.5 t52 -59.5t79.5 -21t76.5 19t49.5 51l106 -52q-16 -39 -50 -69t-80.5 -47t-102.5 -17zM132 640l-106 176h168l65 -176h-127zM354 640l-107 176h168l65 -176h-126z"></glyph>
      <glyph glyph-name="uni0206" unicode="Ȇ" d="M72 0v745h495v-120h-359v-191h339v-120h-339v-194h359v-120h-495zM120 842q1 42 22.5 79.5t65.5 61.5t112 24q69 0 113 -23t65.5 -60.5t22.5 -81.5h-128q-2 30 -20.5 47t-52.5 17q-32 0 -51 -17t-20 -47h-129z"></glyph>
      <glyph glyph-name="uni0207" unicode="ȇ" d="M319 -12q-84 0 -147 38t-98 103t-35 144q0 82 35.5 145.5t97 100.5t137.5 37q64 0 112.5 -21t82.5 -58t52 -84.5t18 -102.5q0 -14 -1.5 -29t-5.5 -26h-420v100h346l-62 -47q9 46 -4.5 82t-44 57t-73.5 21q-41 0 -73 -20.5t-48.5 -60t-12.5 -95.5q-4 -50 13.5 -88.5 t52 -59.5t79.5 -21t76.5 19t49.5 51l106 -52q-16 -39 -50 -69t-80.5 -47t-102.5 -17zM106 640q1 42 22.5 79.5t65.5 61.5t112 24q69 0 113 -23t65.5 -60.5t22.5 -81.5h-128q-2 30 -20.5 47t-52.5 17q-32 0 -51 -17t-20 -47h-129z"></glyph>
      <glyph glyph-name="uni0208" unicode="Ȉ" d="M72 0v745h136v-745h-136zM-34 842l-106 176h168l65 -176h-127zM188 842l-107 176h168l65 -176h-126z"></glyph>
      <glyph glyph-name="uni0209" unicode="ȉ" d="M49 0v544h131v-544h-131zM-60 640l-106 176h168l65 -176h-127zM162 640l-107 176h168l65 -176h-126z"></glyph>
      <glyph glyph-name="uni020A" unicode="Ȋ" d="M72 0v745h136v-745h-136zM-60 842q1 42 22.5 79.5t65.5 61.5t112 24q69 0 113 -23t65.5 -60.5t22.5 -81.5h-128q-2 30 -20.5 47t-52.5 17q-32 0 -51 -17t-20 -47h-129z"></glyph>
      <glyph glyph-name="uni020B" unicode="ȋ" d="M49 0v544h131v-544h-131zM-86 640q1 42 22.5 79.5t65.5 61.5t112 24q69 0 113 -23t65.5 -60.5t22.5 -81.5h-128q-2 30 -20.5 47t-52.5 17q-32 0 -51 -17t-20 -47h-129z"></glyph>
      <glyph glyph-name="uni020C" unicode="Ȍ" d="M439 -12q-82 0 -153 29t-124 81t-82.5 122.5t-29.5 152.5q0 83 29 153t82 122t124 80.5t154 28.5t154 -29t124 -80.5t82.5 -121.5t29.5 -153q0 -82 -30 -152.5t-83 -122.5t-123.5 -81t-153.5 -29zM439 112q55 0 101 19.5t80.5 54.5t53 83t18.5 104t-18.5 103.5t-53 83 t-80.5 54.5t-101 19q-54 0 -100 -19t-80.5 -54.5t-53.5 -83t-19 -103.5t19 -104t53.5 -83t80.5 -54.5t100 -19.5zM265 842l-106 176h168l65 -176h-127zM487 842l-107 176h168l65 -176h-126z"></glyph>
      <glyph glyph-name="uni020D" unicode="ȍ" d="M327 -12q-80 0 -145.5 37t-104 101t-38.5 146t38.5 146t103.5 101t146 37q80 0 145 -37t103.5 -100.5t38.5 -146.5q0 -82 -39 -146t-104 -101t-144 -37zM327 108q44 0 77.5 21t53 58.5t19.5 84.5q0 48 -19.5 84.5t-53 58t-77.5 21.5q-45 0 -79 -21.5t-53.5 -58 t-19.5 -84.5q0 -47 19.5 -84.5t53.5 -58.5t79 -21zM152 640l-106 176h168l65 -176h-127zM374 640l-107 176h168l65 -176h-126z"></glyph>
      <glyph glyph-name="uni020E" unicode="Ȏ" d="M439 -12q-82 0 -153 29t-124 81t-82.5 122.5t-29.5 152.5q0 83 29 153t82 122t124 80.5t154 28.5t154 -29t124 -80.5t82.5 -121.5t29.5 -153q0 -82 -30 -152.5t-83 -122.5t-123.5 -81t-153.5 -29zM439 112q55 0 101 19.5t80.5 54.5t53 83t18.5 104t-18.5 103.5t-53 83 t-80.5 54.5t-101 19q-54 0 -100 -19t-80.5 -54.5t-53.5 -83t-19 -103.5t19 -104t53.5 -83t80.5 -54.5t100 -19.5zM239 842q1 42 22.5 79.5t65.5 61.5t112 24q69 0 113 -23t65.5 -60.5t22.5 -81.5h-128q-2 30 -20.5 47t-52.5 17q-32 0 -51 -17t-20 -47h-129z"></glyph>
      <glyph glyph-name="uni020F" unicode="ȏ" d="M327 -12q-80 0 -145.5 37t-104 101t-38.5 146t38.5 146t103.5 101t146 37q80 0 145 -37t103.5 -100.5t38.5 -146.5q0 -82 -39 -146t-104 -101t-144 -37zM327 108q44 0 77.5 21t53 58.5t19.5 84.5q0 48 -19.5 84.5t-53 58t-77.5 21.5q-45 0 -79 -21.5t-53.5 -58 t-19.5 -84.5q0 -47 19.5 -84.5t53.5 -58.5t79 -21zM126 640q1 42 22.5 79.5t65.5 61.5t112 24q69 0 113 -23t65.5 -60.5t22.5 -81.5h-128q-2 30 -20.5 47t-52.5 17q-32 0 -51 -17t-20 -47h-129z"></glyph>
      <glyph glyph-name="uni0210" unicode="Ȑ" d="M72 0v745h277q76 0 134.5 -27.5t91.5 -80t33 -127.5q0 -77 -36.5 -131t-98.5 -80l171 -299h-154l-183 327l88 -52h-187v-275h-136zM208 395h143q37 0 64 14.5t42 40.5t15 60q0 35 -15 60.5t-42 40t-64 14.5h-143v-230zM155 842l-106 176h168l65 -176h-127zM377 842 l-107 176h168l65 -176h-126z"></glyph>
      <glyph glyph-name="uni0211" unicode="ȑ" d="M61 0v544h123v-121l-10 18q19 61 59.5 85t97.5 24h32v-116h-47q-56 0 -90 -34.5t-34 -96.5v-303h-131zM37 640l-106 176h168l65 -176h-127zM259 640l-107 176h168l65 -176h-126z"></glyph>
      <glyph glyph-name="uni0212" unicode="Ȓ" d="M72 0v745h277q76 0 134.5 -27.5t91.5 -80t33 -127.5q0 -77 -36.5 -131t-98.5 -80l171 -299h-154l-183 327l88 -52h-187v-275h-136zM208 395h143q37 0 64 14.5t42 40.5t15 60q0 35 -15 60.5t-42 40t-64 14.5h-143v-230zM129 842q1 42 22.5 79.5t65.5 61.5t112 24 q69 0 113 -23t65.5 -60.5t22.5 -81.5h-128q-2 30 -20.5 47t-52.5 17q-32 0 -51 -17t-20 -47h-129z"></glyph>
      <glyph glyph-name="uni0213" unicode="ȓ" d="M61 0v544h123v-121l-10 18q19 61 59.5 85t97.5 24h32v-116h-47q-56 0 -90 -34.5t-34 -96.5v-303h-131zM12 640q1 42 22.5 79.5t65.5 61.5t112 24q69 0 113 -23t65.5 -60.5t22.5 -81.5h-128q-2 30 -20.5 47t-52.5 17q-32 0 -51 -17t-20 -47h-129z"></glyph>
      <glyph glyph-name="uni0214" unicode="Ȕ" d="M359 -12q-86 0 -152.5 36t-104.5 99t-38 143v479h136v-472q0 -46 20.5 -83t56.5 -57.5t82 -20.5q47 0 82.5 20.5t56 57.5t20.5 83v472h136v-479q0 -80 -38 -143t-104.5 -99t-152.5 -36zM185 842l-106 176h168l65 -176h-127zM407 842l-107 176h168l65 -176h-126z"></glyph>
      <glyph glyph-name="uni0215" unicode="ȕ" d="M255 -12q-63 0 -109.5 28t-71 78t-24.5 117v333h131v-322q0 -34 13.5 -59.5t39 -40t57.5 -14.5t57 14.5t39 40.5t14 62v319h131v-544h-124v107l11 -19q-19 -50 -62.5 -75t-101.5 -25zM122 640l-106 176h168l65 -176h-127zM344 640l-107 176h168l65 -176h-126z"></glyph>
      <glyph glyph-name="uni0216" unicode="Ȗ" d="M359 -12q-86 0 -152.5 36t-104.5 99t-38 143v479h136v-472q0 -46 20.5 -83t56.5 -57.5t82 -20.5q47 0 82.5 20.5t56 57.5t20.5 83v472h136v-479q0 -80 -38 -143t-104.5 -99t-152.5 -36zM159 842q1 42 22.5 79.5t65.5 61.5t112 24q69 0 113 -23t65.5 -60.5t22.5 -81.5 h-128q-2 30 -20.5 47t-52.5 17q-32 0 -51 -17t-20 -47h-129z"></glyph>
      <glyph glyph-name="uni0217" unicode="ȗ" d="M255 -12q-63 0 -109.5 28t-71 78t-24.5 117v333h131v-322q0 -34 13.5 -59.5t39 -40t57.5 -14.5t57 14.5t39 40.5t14 62v319h131v-544h-124v107l11 -19q-19 -50 -62.5 -75t-101.5 -25zM97 640q1 42 22.5 79.5t65.5 61.5t112 24q69 0 113 -23t65.5 -60.5t22.5 -81.5h-128 q-2 30 -20.5 47t-52.5 17q-32 0 -51 -17t-20 -47h-129z"></glyph>
      <glyph glyph-name="uni0218" unicode="Ș" d="M338 -12q-71 0 -131.5 26t-104 72.5t-63.5 108.5l113 49q27 -64 78 -100.5t115 -36.5q36 0 62.5 11.5t41 31.5t14.5 48q0 33 -19.5 54.5t-58.5 33.5l-143 46q-87 27 -131 81t-44 127q0 64 31.5 113t88 76.5t129.5 27.5q67 0 123 -23.5t96.5 -65t60.5 -97.5l-112 -50 q-22 56 -66 86.5t-102 30.5q-34 0 -60 -11.5t-40.5 -32t-14.5 -48.5q0 -31 20 -54.5t61 -36.5l137 -43q89 -29 133.5 -80t44.5 -126q0 -64 -33 -113t-91 -77t-135 -28zM226 -257l29 187h167l-73 -187h-123z"></glyph>
      <glyph glyph-name="uni0219" unicode="ș" d="M268 -12q-87 0 -151.5 41.5t-88.5 112.5l98 47q21 -46 58.5 -72t83.5 -26q36 0 57 16t21 42q0 16 -8.5 26.5t-23 18t-31.5 12.5l-89 25q-69 20 -104.5 61t-35.5 97q0 50 25.5 87.5t71 58.5t104.5 21q77 0 136 -37t84 -104l-100 -47q-14 37 -47 59t-74 22q-33 0 -52 -15 t-19 -39q0 -15 8 -26t22.5 -18t33.5 -13l87 -26q67 -20 103.5 -60t36.5 -98q0 -49 -26 -86.5t-72 -58.5t-108 -21zM146 -257l29 187h167l-73 -187h-123z"></glyph>
      <glyph glyph-name="uni021A" unicode="Ț" d="M204 0v625h-193v120h520v-120h-190v-625h-137zM159 -257l29 187h167l-73 -187h-123z"></glyph>
      <glyph glyph-name="uni021B" unicode="ț" d="M309 -6q-92 0 -142.5 50.5t-50.5 142.5v240h-94v117h10q40 0 62 21t22 61v42h131v-124h125v-117h-125v-233q0 -27 9.5 -46t30 -29t52.5 -10q7 0 16.5 1t18.5 2v-112q-14 -2 -32 -4t-33 -2zM190 -257l29 187h167l-73 -187h-123z"></glyph>
      <glyph glyph-name="uni022A" unicode="Ȫ" d="M439 -12q-82 0 -153 29t-124 81t-82.5 122.5t-29.5 152.5q0 83 29 153t82 122t124 80.5t154 28.5t154 -29t124 -80.5t82.5 -121.5t29.5 -153q0 -82 -30 -152.5t-83 -122.5t-123.5 -81t-153.5 -29zM439 112q55 0 101 19.5t80.5 54.5t53 83t18.5 104t-18.5 103.5t-53 83 t-80.5 54.5t-101 19q-54 0 -100 -19t-80.5 -54.5t-53.5 -83t-19 -103.5t19 -104t53.5 -83t80.5 -54.5t100 -19.5zM262 842v138h137v-138h-137zM479 842v138h138v-138h-138zM278 1040v108h322v-108h-322z"></glyph>
      <glyph glyph-name="uni022B" unicode="ȫ" d="M327 -12q-80 0 -145.5 37t-104 101t-38.5 146t38.5 146t103.5 101t146 37q80 0 145 -37t103.5 -100.5t38.5 -146.5q0 -82 -39 -146t-104 -101t-144 -37zM327 108q44 0 77.5 21t53 58.5t19.5 84.5q0 48 -19.5 84.5t-53 58t-77.5 21.5q-45 0 -79 -21.5t-53.5 -58 t-19.5 -84.5q0 -47 19.5 -84.5t53.5 -58.5t79 -21zM150 640v138h137v-138h-137zM367 640v138h138v-138h-138zM166 838v108h322v-108h-322z"></glyph>
      <glyph glyph-name="uni022C" unicode="Ȭ" d="M439 -12q-82 0 -153 29t-124 81t-82.5 122.5t-29.5 152.5q0 83 29 153t82 122t124 80.5t154 28.5t154 -29t124 -80.5t82.5 -121.5t29.5 -153q0 -82 -30 -152.5t-83 -122.5t-123.5 -81t-153.5 -29zM439 112q55 0 101 19.5t80.5 54.5t53 83t18.5 104t-18.5 103.5t-53 83 t-80.5 54.5t-101 19q-54 0 -100 -19t-80.5 -54.5t-53.5 -83t-19 -103.5t19 -104t53.5 -83t80.5 -54.5t100 -19.5zM511 842q-27 0 -45.5 8.5t-31.5 19t-26 19t-30 8.5t-26 -12.5t-9 -38.5h-101q0 80 36 117.5t87 37.5q28 0 47 -8t33 -19t26.5 -19t27.5 -8q20 0 28 13.5 t8 36.5h101q-1 -76 -37 -115.5t-88 -39.5zM278 1045v107h322v-107h-322z"></glyph>
      <glyph glyph-name="uni022D" unicode="ȭ" d="M327 -12q-80 0 -145.5 37t-104 101t-38.5 146t38.5 146t103.5 101t146 37q80 0 145 -37t103.5 -100.5t38.5 -146.5q0 -82 -39 -146t-104 -101t-144 -37zM327 108q44 0 77.5 21t53 58.5t19.5 84.5q0 48 -19.5 84.5t-53 58t-77.5 21.5q-45 0 -79 -21.5t-53.5 -58 t-19.5 -84.5q0 -47 19.5 -84.5t53.5 -58.5t79 -21zM399 640q-27 0 -45.5 8.5t-31.5 19t-26 19t-30 8.5t-26 -12.5t-9 -38.5h-101q0 80 36 117.5t87 37.5q28 0 47 -8t33 -19t26.5 -19t27.5 -8q20 0 28 13.5t8 36.5h101q-1 -76 -37 -115.5t-88 -39.5zM166 843v107h322v-107 h-322z"></glyph>
      <glyph glyph-name="uni0230" unicode="Ȱ" d="M439 -12q-82 0 -153 29t-124 81t-82.5 122.5t-29.5 152.5q0 83 29 153t82 122t124 80.5t154 28.5t154 -29t124 -80.5t82.5 -121.5t29.5 -153q0 -82 -30 -152.5t-83 -122.5t-123.5 -81t-153.5 -29zM439 112q55 0 101 19.5t80.5 54.5t53 83t18.5 104t-18.5 103.5t-53 83 t-80.5 54.5t-101 19q-54 0 -100 -19t-80.5 -54.5t-53.5 -83t-19 -103.5t19 -104t53.5 -83t80.5 -54.5t100 -19.5zM370 842v138h138v-138h-138zM278 1040v108h322v-108h-322z"></glyph>
      <glyph glyph-name="uni0231" unicode="ȱ" d="M327 -12q-80 0 -145.5 37t-104 101t-38.5 146t38.5 146t103.5 101t146 37q80 0 145 -37t103.5 -100.5t38.5 -146.5q0 -82 -39 -146t-104 -101t-144 -37zM327 108q44 0 77.5 21t53 58.5t19.5 84.5q0 48 -19.5 84.5t-53 58t-77.5 21.5q-45 0 -79 -21.5t-53.5 -58 t-19.5 -84.5q0 -47 19.5 -84.5t53.5 -58.5t79 -21zM258 640v138h138v-138h-138zM166 838v108h322v-108h-322z"></glyph>
      <glyph glyph-name="uni0232" unicode="Ȳ" d="M262 0v330l-251 415h155l192 -324h-55l191 324h155l-250 -414v-331h-137zM169 862v108h322v-108h-322z"></glyph>
      <glyph glyph-name="uni0233" unicode="ȳ" d="M127 -220q-22 0 -43 3.5t-38 12.5v109q13 -3 31.5 -6t34.5 -3q45 0 65.5 20.5t36.5 54.5l36 84l-2 -110l-237 599h141l166 -442h-50l165 442h142l-237 -599q-21 -52 -51 -89t-69.5 -56.5t-90.5 -19.5zM132 660v108h322v-108h-322z"></glyph>
      <glyph glyph-name="uni0237" unicode="ȷ" d="M-14 -221q-13 0 -27 1t-23 3v114q18 -3 36 -3q42 0 65.5 19.5t23.5 59.5v571h131v-571q0 -62 -25 -105.5t-71.5 -66t-109.5 -22.5z"></glyph>
      <glyph glyph-name="uni0259" unicode="ə" d="M303 -12q-63 0 -112 21t-83 57.5t-51.5 84.5t-17.5 103q0 15 1 29.5t5 25.5h420v-100h-346l63 47q-10 -46 3.5 -82t44.5 -57t73 -21t73.5 20.5t48.5 60t12 95.5q5 50 -13 88t-52 59.5t-80 21.5q-45 0 -76 -19t-50 -51l-106 51q17 40 50.5 70t80.5 47t102 17q84 0 147 -38 t98.5 -103t35.5 -144q0 -81 -35.5 -145t-97 -101t-138.5 -37z"></glyph>
      <glyph glyph-name="circumflex" unicode="ˆ" d="M123 640l117 165h155l118 -165h-130l-65 90l-65 -90h-130z"></glyph>
      <glyph glyph-name="caron" unicode="ˇ" d="M240 640l-117 165h130l65 -90l65 90h130l-118 -165h-155z"></glyph>
      <glyph glyph-name="breve" unicode="˘" d="M323 640q-68 0 -112 24t-65.5 61.5t-22.5 79.5h129q1 -30 20 -47t51 -17q34 0 52.5 17t20.5 47h128q-1 -43 -22.5 -81t-65.5 -61t-113 -23z"></glyph>
      <glyph glyph-name="dotaccent" unicode="˙" d="M123 640v138h137v-138h-137z"></glyph>
      <glyph glyph-name="ring" unicode="˚" d="M248 598q-53 0 -89 33.5t-36 87.5q0 53 35.5 86.5t89.5 33.5q53 0 88.5 -33.5t35.5 -86.5q0 -54 -35.5 -87.5t-88.5 -33.5zM248 676q18 0 29.5 12t11.5 31t-11.5 30.5t-29.5 11.5t-30.5 -11.5t-12.5 -30.5t12 -31t31 -12z"></glyph>
      <glyph glyph-name="ogonek" unicode="˛" d="M262 -237q-63 0 -101 34t-38 85q0 38 16.5 70.5t50 55t84.5 31.5h29v-39q-20 -4 -36.5 -18t-26.5 -34.5t-10 -46.5q0 -24 16.5 -37.5t36.5 -13.5q17 0 30 5t27 16l28 -75q-21 -15 -46.5 -24t-59.5 -9z"></glyph>
      <glyph glyph-name="tilde" unicode="˜" d="M392 640q-27 0 -45.5 8.5t-31.5 19t-26 19t-30 8.5t-26 -12.5t-9 -38.5h-101q0 80 36 117.5t87 37.5q28 0 47 -8t33 -19t26.5 -19t27.5 -8q20 0 28 13.5t8 36.5h101q-1 -76 -37 -115.5t-88 -39.5z"></glyph>
      <glyph glyph-name="hungarumlaut" unicode="˝" d="M123 640l42 173h168l-84 -173h-126zM344 640l43 173h168l-84 -173h-127z"></glyph>
      <glyph glyph-name="gravecomb" unicode="̀" d="M229 640l-106 173h170l65 -173h-129z"></glyph>
      <glyph glyph-name="acutecomb" unicode="́" d="M123 640l65 173h170l-106 -173h-129z"></glyph>
      <glyph glyph-name="uni0302" unicode="̂" d="M123 640l117 165h155l118 -165h-130l-65 90l-65 -90h-130z"></glyph>
      <glyph glyph-name="tildecomb" unicode="̃" d="M392 640q-27 0 -45.5 8.5t-31.5 19t-26 19t-30 8.5t-26 -12.5t-9 -38.5h-101q0 80 36 117.5t87 37.5q28 0 47 -8t33 -19t26.5 -19t27.5 -8q20 0 28 13.5t8 36.5h101q-1 -76 -37 -115.5t-88 -39.5z"></glyph>
      <glyph glyph-name="uni0304" unicode="̄" d="M123 660v108h322v-108h-322z"></glyph>
      <glyph glyph-name="uni0306" unicode="̆" d="M323 640q-68 0 -112 24t-65.5 61.5t-22.5 79.5h129q1 -30 20 -47t51 -17q34 0 52.5 17t20.5 47h128q-1 -43 -22.5 -81t-65.5 -61t-113 -23z"></glyph>
      <glyph glyph-name="uni0307" unicode="̇" d="M123 640v138h137v-138h-137z"></glyph>
      <glyph glyph-name="uni0308" unicode="̈" d="M123 640v138h137v-138h-137zM340 640v138h138v-138h-138z"></glyph>
      <glyph glyph-name="hookabovecomb" unicode="̉" d="M252 600l-57 65q28 14 39 28t11 32q0 19 -15 30t-42 11q-12 0 -25 -1.5t-25 -7.5l-15 83q17 9 40 13t48 4q68 0 109.5 -33t41.5 -87q0 -41 -29.5 -76.5t-80.5 -60.5z"></glyph>
      <glyph glyph-name="uni030A" unicode="̊" d="M248 598q-53 0 -89 33.5t-36 87.5q0 53 35.5 86.5t89.5 33.5q53 0 88.5 -33.5t35.5 -86.5q0 -54 -35.5 -87.5t-88.5 -33.5zM248 676q18 0 29.5 12t11.5 31t-11.5 30.5t-29.5 11.5t-30.5 -11.5t-12.5 -30.5t12 -31t31 -12z"></glyph>
      <glyph glyph-name="uni030B" unicode="̋" d="M123 640l42 173h168l-84 -173h-126zM344 640l43 173h168l-84 -173h-127z"></glyph>
      <glyph glyph-name="uni030C" unicode="̌" d="M240 640l-117 165h130l65 -90l65 90h130l-118 -165h-155z"></glyph>
      <glyph glyph-name="uni030F" unicode="̏" d="M229 640l-106 176h168l65 -176h-127zM451 640l-107 176h168l65 -176h-126z"></glyph>
      <glyph glyph-name="uni0311" unicode="̑" d="M123 640q1 42 22.5 79.5t65.5 61.5t112 24q69 0 113 -23t65.5 -60.5t22.5 -81.5h-128q-2 30 -20.5 47t-52.5 17q-32 0 -51 -17t-20 -47h-129z"></glyph>
      <glyph glyph-name="uni0312" unicode="̒" d="M123 600l72 187h124l-29 -187h-167z"></glyph>
      <glyph glyph-name="uni031B" unicode="̛" d="M123 640v93h6q8 0 19.5 2t20 12.5t8.5 35.5q0 17 -6 37t-15 40h113q10 -21 16.5 -41.5t6.5 -47.5q0 -68 -39.5 -99.5t-103.5 -31.5h-26z"></glyph>
      <glyph glyph-name="dotbelowcomb" unicode="̣" d="M123 -227v137h137v-137h-137z"></glyph>
      <glyph glyph-name="uni0324" unicode="̤" d="M123 -227v137h137v-137h-137zM340 -227v137h138v-137h-138z"></glyph>
      <glyph glyph-name="uni0326" unicode="̦" d="M123 -257l29 187h167l-73 -187h-123z"></glyph>
      <glyph glyph-name="uni0327" unicode="̧" d="M236 -237q-26 0 -58.5 8.5t-54.5 24.5l28 75q15 -10 33 -15.5t35 -5.5q22 0 34 9t12 25q0 19 -24 30.5t-70 16.5l21 79h77l-9 -40q52 -7 82 -32.5t30 -63.5q0 -51 -37 -81t-99 -30z"></glyph>
      <glyph glyph-name="uni0328" unicode="̨" d="M262 -237q-63 0 -101 34t-38 85q0 38 16.5 70.5t50 55t84.5 31.5h29v-39q-20 -4 -36.5 -18t-26.5 -34.5t-10 -46.5q0 -24 16.5 -37.5t36.5 -13.5q17 0 30 5t27 16l28 -75q-21 -15 -46.5 -24t-59.5 -9z"></glyph>
      <glyph glyph-name="uni032E" unicode="̮" d="M323 -255q-68 0 -112 24t-65.5 61.5t-22.5 79.5h129q1 -30 20 -47t51 -17q34 0 52.5 17t20.5 47h128q-1 -43 -22.5 -81t-65.5 -61t-113 -23z"></glyph>
      <glyph glyph-name="uni0331" unicode="̱" d="M123 -207v107h322v-107h-322z"></glyph>
      <glyph glyph-name="uni0394" unicode="Δ" d="M11 0v120l216 625h176l216 -625v-120h-608zM138 64l-41 56h435l-41 -56l-195 586h38z"></glyph>
      <glyph glyph-name="uni03A9" unicode="Ω" d="M50 0v120h173l-28 -25q-67 46 -106 119.5t-39 158.5q0 83 29 153t82 122t124 80.5t154 28.5t154 -28.5t124 -80.5t82.5 -122t29.5 -153q0 -85 -39 -158.5t-107 -119.5l-28 25h174v-120h-313v120q53 16 92.5 52t61.5 88t22 113q0 56 -18.5 103.5t-53 83t-80.5 54.5 t-101 19q-54 0 -100 -19t-80.5 -54.5t-53.5 -83t-19 -103.5q0 -61 22.5 -113t62 -88t91.5 -52v-120h-312z"></glyph>
      <glyph glyph-name="pi" unicode="π" d="M114 0v427h-92v117h638v-117h-91v-427h-131v427h-192v-427h-132z"></glyph>
      <glyph glyph-name="uni0E3F" unicode="฿" d="M72 0v745h314q74 0 126.5 -25.5t81 -72t28.5 -112.5q0 -51 -27.5 -95.5t-87.5 -73.5v63q55 -21 87 -52t45 -69t13 -80q0 -107 -70.5 -167.5t-195.5 -60.5h-314zM208 120h192q53 0 84.5 29.5t31.5 78.5t-31.5 79t-84.5 30h-192v-217zM208 456h185q42 0 67 24.5t25 63.5 t-25 62t-67 23h-185v-173zM300 -100v945h85v-945h-85z"></glyph>
      <glyph glyph-name="uni1E08" unicode="Ḉ" d="M422 -12q-80 0 -147.5 29t-118 81t-78.5 122t-28 153t27.5 153.5t78 122t118.5 80t148 28.5t143.5 -27t107.5 -71.5t63 -97.5l-122 -57q-21 56 -71 92.5t-121 36.5q-70 0 -123.5 -33t-83 -91t-29.5 -136t29.5 -136.5t83 -91.5t123.5 -33q71 0 121 36.5t71 92.5l122 -57 q-19 -53 -63 -97.5t-107.5 -71.5t-143.5 -27zM432 -237q-26 0 -58.5 8.5t-54.5 24.5l28 75q15 -10 33 -15.5t35 -5.5q22 0 34 9t12 25q0 19 -24 30.5t-70 16.5l21 79h77l-9 -40q52 -7 82 -32.5t30 -63.5q0 -51 -37 -81t-99 -30zM358 842l65 173h170l-106 -173h-129z"></glyph>
      <glyph glyph-name="uni1E09" unicode="ḉ" d="M323 -12q-81 0 -145.5 37.5t-101.5 102t-37 145.5t37 145t101.5 101t145.5 37q58 0 108 -20.5t86.5 -56t52.5 -84.5l-115 -50q-15 41 -50.5 66t-81.5 25q-43 0 -76.5 -21t-52.5 -58t-19 -85t19 -85t52.5 -58t76.5 -21q47 0 82 25t50 67l115 -52q-16 -46 -52 -82.5 t-86 -57t-109 -20.5zM333 -237q-26 0 -58.5 8.5t-54.5 24.5l28 75q15 -10 33 -15.5t35 -5.5q22 0 34 9t12 25q0 19 -24 30.5t-70 16.5l21 79h77l-9 -40q52 -7 82 -32.5t30 -63.5q0 -51 -37 -81t-99 -30zM258 640l65 173h170l-106 -173h-129z"></glyph>
      <glyph glyph-name="uni1E0C" unicode="Ḍ" d="M72 0v745h243q118 0 205.5 -47.5t135.5 -131t48 -193.5q0 -109 -48 -193.5t-135.5 -132t-205.5 -47.5h-243zM208 120h110q76 0 131.5 31.5t86.5 88t31 133.5q0 78 -31 134t-86.5 87t-131.5 31h-110v-505zM309 -227v137h137v-137h-137z"></glyph>
      <glyph glyph-name="uni1E0D" unicode="ḍ" d="M314 -12q-79 0 -141 37.5t-98 102.5t-36 144q0 80 36 144t98.5 102t139.5 38q62 0 110.5 -24.5t76.5 -68.5l-20 -27v321h131v-757h-124v105l14 -26q-28 -44 -78 -67.5t-109 -23.5zM328 108q45 0 79 21t53.5 58t19.5 85q0 47 -19.5 84.5t-53.5 58.5t-79 21 q-44 0 -79 -21.5t-54.5 -58t-19.5 -84.5t19.5 -85t54.5 -58t79 -21zM268 -227v137h137v-137h-137z"></glyph>
      <glyph glyph-name="uni1E0E" unicode="Ḏ" d="M72 0v745h243q118 0 205.5 -47.5t135.5 -131t48 -193.5q0 -109 -48 -193.5t-135.5 -132t-205.5 -47.5h-243zM208 120h110q76 0 131.5 31.5t86.5 88t31 133.5q0 78 -31 134t-86.5 87t-131.5 31h-110v-505zM216 -207v107h322v-107h-322z"></glyph>
      <glyph glyph-name="uni1E0F" unicode="ḏ" d="M314 -12q-79 0 -141 37.5t-98 102.5t-36 144q0 80 36 144t98.5 102t139.5 38q62 0 110.5 -24.5t76.5 -68.5l-20 -27v321h131v-757h-124v105l14 -26q-28 -44 -78 -67.5t-109 -23.5zM328 108q45 0 79 21t53.5 58t19.5 85q0 47 -19.5 84.5t-53.5 58.5t-79 21 q-44 0 -79 -21.5t-54.5 -58t-19.5 -84.5t19.5 -85t54.5 -58t79 -21zM176 -207v107h322v-107h-322z"></glyph>
      <glyph glyph-name="uni1E14" unicode="Ḕ" d="M72 0v745h495v-120h-359v-191h339v-120h-339v-194h359v-120h-495zM159 862v108h323v-108h-323zM256 1032l-106 173h170l65 -173h-129z"></glyph>
      <glyph glyph-name="uni1E15" unicode="ḕ" d="M319 -12q-84 0 -147 38t-98 103t-35 144q0 82 35.5 145.5t97 100.5t137.5 37q64 0 112.5 -21t82.5 -58t52 -84.5t18 -102.5q0 -14 -1.5 -29t-5.5 -26h-420v100h346l-62 -47q9 46 -4.5 82t-44 57t-73.5 21q-41 0 -73 -20.5t-48.5 -60t-12.5 -95.5q-4 -50 13.5 -88.5 t52 -59.5t79.5 -21t76.5 19t49.5 51l106 -52q-16 -39 -50 -69t-80.5 -47t-102.5 -17zM145 660v108h323v-108h-323zM242 830l-106 173h170l65 -173h-129z"></glyph>
      <glyph glyph-name="uni1E16" unicode="Ḗ" d="M72 0v745h495v-120h-359v-191h339v-120h-339v-194h359v-120h-495zM253 1032l65 173h171l-107 -173h-129zM157 862v108h322v-108h-322z"></glyph>
      <glyph glyph-name="uni1E17" unicode="ḗ" d="M319 -12q-84 0 -147 38t-98 103t-35 144q0 82 35.5 145.5t97 100.5t137.5 37q64 0 112.5 -21t82.5 -58t52 -84.5t18 -102.5q0 -14 -1.5 -29t-5.5 -26h-420v100h346l-62 -47q9 46 -4.5 82t-44 57t-73.5 21q-41 0 -73 -20.5t-48.5 -60t-12.5 -95.5q-4 -50 13.5 -88.5 t52 -59.5t79.5 -21t76.5 19t49.5 51l106 -52q-16 -39 -50 -69t-80.5 -47t-102.5 -17zM240 830l65 173h171l-107 -173h-129zM144 660v108h322v-108h-322z"></glyph>
      <glyph glyph-name="uni1E1C" unicode="Ḝ" d="M72 0v745h495v-120h-359v-191h339v-120h-339v-194h359v-120h-495zM330 -237q-26 0 -58.5 8.5t-54.5 24.5l28 75q15 -10 33 -15.5t35 -5.5q22 0 34 9t12 25q0 19 -24 30.5t-70 16.5l21 79h77l-9 -40q52 -7 82 -32.5t30 -63.5q0 -51 -37 -81t-99 -30zM320 845 q-68 0 -112 24t-65.5 61.5t-22.5 79.5h129q1 -30 20 -47t51 -17q34 0 52.5 17t20.5 47h128q-1 -43 -22.5 -81t-65.5 -61t-113 -23z"></glyph>
      <glyph glyph-name="uni1E1D" unicode="ḝ" d="M319 -12q-84 0 -147 38t-98 103t-35 144q0 82 35.5 145.5t97 100.5t137.5 37q64 0 112.5 -21t82.5 -58t52 -84.5t18 -102.5q0 -14 -1.5 -29t-5.5 -26h-420v100h346l-62 -47q9 46 -4.5 82t-44 57t-73.5 21q-41 0 -73 -20.5t-48.5 -60t-12.5 -95.5q-4 -50 13.5 -88.5 t52 -59.5t79.5 -21t76.5 19t49.5 51l106 -52q-16 -39 -50 -69t-80.5 -47t-102.5 -17zM317 -237q-26 0 -58.5 8.5t-54.5 24.5l28 75q15 -10 33 -15.5t35 -5.5q22 0 34 9t12 25q0 19 -24 30.5t-70 16.5l21 79h77l-9 -40q52 -7 82 -32.5t30 -63.5q0 -51 -37 -81t-99 -30z M306 644q-68 0 -112 24t-65.5 61.5t-22.5 79.5h129q1 -30 20 -47t51 -17q34 0 52.5 17t20.5 47h128q-1 -43 -22.5 -81t-65.5 -61t-113 -23z"></glyph>
      <glyph glyph-name="uni1E20" unicode="Ḡ" d="M425 -12q-80 0 -148 29t-119 81t-79.5 122t-28.5 153t27.5 153.5t78 122t118.5 80t148 28.5t143.5 -27t107.5 -71.5t63 -97.5l-121 -58q-21 58 -71 94t-122 36q-70 0 -123.5 -33t-83 -91t-29.5 -136t30.5 -136.5t84.5 -91.5t124 -33q57 0 105 22.5t77 64t29 98.5v57 l62 -54h-276v115h350v-75q0 -86 -29 -152t-78.5 -110.5t-111.5 -67t-128 -22.5zM244 862v108h322v-108h-322z"></glyph>
      <glyph glyph-name="uni1E21" unicode="ḡ" d="M325 -220q-61 0 -113 20t-89.5 55.5t-54.5 83.5l122 46q12 -38 47.5 -61.5t87.5 -23.5q40 0 70.5 15t47.5 43.5t17 68.5v124l25 -30q-28 -49 -75 -74t-107 -25q-76 0 -136 35t-94 96t-34 137q0 77 34 137t93 94.5t134 34.5q61 0 107.5 -25.5t77.5 -73.5l-18 -33v120h124 v-517q0 -71 -34.5 -127t-94 -88t-137.5 -32zM319 143q42 0 73.5 18.5t49.5 51.5t18 76q0 42 -18.5 75.5t-50 52.5t-72.5 19t-74 -19t-51.5 -52.5t-18.5 -75.5t18.5 -75t51 -52t74.5 -19zM165 660v108h322v-108h-322z"></glyph>
      <glyph glyph-name="uni1E24" unicode="Ḥ" d="M72 0v745h136v-325h317v325h137v-745h-137v300h-317v-300h-136zM298 -227v137h137v-137h-137z"></glyph>
      <glyph glyph-name="uni1E25" unicode="ḥ" d="M61 0v757h131v-320l-18 19q19 49 62.5 74.5t101.5 25.5q60 0 106.5 -26t72.5 -72.5t26 -107.5v-350h-131v319q0 36 -14 62t-38.5 40.5t-57.5 14.5q-32 0 -57 -14.5t-39 -40.5t-14 -62v-319h-131zM229 -227v137h137v-137h-137z"></glyph>
      <glyph glyph-name="uni1E2A" unicode="Ḫ" d="M72 0v745h136v-325h317v325h137v-745h-137v300h-317v-300h-136zM366 -255q-68 0 -112 24t-65.5 61.5t-22.5 79.5h129q1 -30 20 -47t51 -17q34 0 52.5 17t20.5 47h128q-1 -43 -22.5 -81t-65.5 -61t-113 -23z"></glyph>
      <glyph glyph-name="uni1E2B" unicode="ḫ" d="M61 0v757h131v-320l-18 19q19 49 62.5 74.5t101.5 25.5q60 0 106.5 -26t72.5 -72.5t26 -107.5v-350h-131v319q0 36 -14 62t-38.5 40.5t-57.5 14.5q-32 0 -57 -14.5t-39 -40.5t-14 -62v-319h-131zM297 -255q-68 0 -112 24t-65.5 61.5t-22.5 79.5h129q1 -30 20 -47t51 -17 q34 0 52.5 17t20.5 47h128q-1 -43 -22.5 -81t-65.5 -61t-113 -23z"></glyph>
      <glyph glyph-name="uni1E2E" unicode="Ḯ" d="M72 0v745h136v-745h-136zM75 1032l65 173h171l-107 -173h-129zM-38 842v138h137v-138h-137zM179 842v138h138v-138h-138z"></glyph>
      <glyph glyph-name="uni1E2F" unicode="ḯ" d="M49 0v544h131v-544h-131zM49 830l65 173h171l-107 -173h-129zM-64 640v138h137v-138h-137zM153 640v138h138v-138h-138z"></glyph>
      <glyph glyph-name="uni1E36" unicode="Ḷ" d="M72 0v745h136v-625h319v-120h-455zM231 -227v137h137v-137h-137z"></glyph>
      <glyph glyph-name="uni1E37" unicode="ḷ" d="M61 0v757h131v-757h-131zM58 -227v137h137v-137h-137z"></glyph>
      <glyph glyph-name="uni1E3A" unicode="Ḻ" d="M72 0v745h136v-625h319v-120h-455zM138 -207v107h322v-107h-322z"></glyph>
      <glyph glyph-name="uni1E3B" unicode="ḻ" d="M61 0v757h131v-757h-131zM-34 -207v107h322v-107h-322z"></glyph>
      <glyph glyph-name="uni1E42" unicode="Ṃ" d="M72 0v745h130l279 -379h-62l273 379h130v-745h-137v590l53 -13l-283 -377h-16l-276 377l45 13v-590h-136zM378 -227v137h137v-137h-137z"></glyph>
      <glyph glyph-name="uni1E43" unicode="ṃ" d="M61 0v544h123v-126l-14 21q15 59 60 88t106 29q67 0 118 -35t66 -92l-37 -3q25 65 75 97.5t115 32.5q58 0 103.5 -26t71.5 -72.5t26 -107.5v-350h-131v319q0 36 -13 62t-36 40.5t-56 14.5q-31 0 -55 -14.5t-37 -40.5t-13 -62v-319h-131v319q0 36 -13 62t-36.5 40.5 t-55.5 14.5q-31 0 -55 -14.5t-37 -40.5t-13 -62v-319h-131zM394 -227v137h137v-137h-137z"></glyph>
      <glyph glyph-name="uni1E44" unicode="Ṅ" d="M72 0v745h106l410 -552l-55 -11v563h136v-745h-107l-404 556l50 11v-567h-136zM302 842v138h137v-138h-137z"></glyph>
      <glyph glyph-name="uni1E45" unicode="ṅ" d="M61 0v544h123v-107l-10 19q19 49 62.5 74.5t101.5 25.5q60 0 106.5 -26t72.5 -72.5t26 -107.5v-350h-131v319q0 36 -14 62t-38.5 40.5t-57.5 14.5q-32 0 -57 -14.5t-39 -40.5t-14 -62v-319h-131zM229 640v138h137v-138h-137z"></glyph>
      <glyph glyph-name="uni1E46" unicode="Ṇ" d="M72 0v745h106l410 -552l-55 -11v563h136v-745h-107l-404 556l50 11v-567h-136zM302 -227v137h137v-137h-137z"></glyph>
      <glyph glyph-name="uni1E47" unicode="ṇ" d="M61 0v544h123v-107l-10 19q19 49 62.5 74.5t101.5 25.5q60 0 106.5 -26t72.5 -72.5t26 -107.5v-350h-131v319q0 36 -14 62t-38.5 40.5t-57.5 14.5q-32 0 -57 -14.5t-39 -40.5t-14 -62v-319h-131zM229 -227v137h137v-137h-137z"></glyph>
      <glyph glyph-name="uni1E48" unicode="Ṉ" d="M72 0v745h106l410 -552l-55 -11v563h136v-745h-107l-404 556l50 11v-567h-136zM210 -207v107h322v-107h-322z"></glyph>
      <glyph glyph-name="uni1E49" unicode="ṉ" d="M61 0v544h123v-107l-10 19q19 49 62.5 74.5t101.5 25.5q60 0 106.5 -26t72.5 -72.5t26 -107.5v-350h-131v319q0 36 -14 62t-38.5 40.5t-57.5 14.5q-32 0 -57 -14.5t-39 -40.5t-14 -62v-319h-131zM136 -207v107h322v-107h-322z"></glyph>
      <glyph glyph-name="uni1E4C" unicode="Ṍ" d="M439 -12q-82 0 -153 29t-124 81t-82.5 122.5t-29.5 152.5q0 83 29 153t82 122t124 80.5t154 28.5t154 -29t124 -80.5t82.5 -121.5t29.5 -153q0 -82 -30 -152.5t-83 -122.5t-123.5 -81t-153.5 -29zM439 112q55 0 101 19.5t80.5 54.5t53 83t18.5 104t-18.5 103.5t-53 83 t-80.5 54.5t-101 19q-54 0 -100 -19t-80.5 -54.5t-53.5 -83t-19 -103.5t19 -104t53.5 -83t80.5 -54.5t100 -19.5zM511 842q-27 0 -45.5 8.5t-31.5 19t-26 19t-30 8.5t-26 -12.5t-9 -38.5h-101q0 80 36 117.5t87 37.5q28 0 47 -8t33 -19t26.5 -19t27.5 -8q20 0 28 13.5 t8 36.5h101q-1 -76 -37 -115.5t-88 -39.5zM374 1032l65 173h171l-107 -173h-129z"></glyph>
      <glyph glyph-name="uni1E4D" unicode="ṍ" d="M327 -12q-80 0 -145.5 37t-104 101t-38.5 146t38.5 146t103.5 101t146 37q80 0 145 -37t103.5 -100.5t38.5 -146.5q0 -82 -39 -146t-104 -101t-144 -37zM327 108q44 0 77.5 21t53 58.5t19.5 84.5q0 48 -19.5 84.5t-53 58t-77.5 21.5q-45 0 -79 -21.5t-53.5 -58 t-19.5 -84.5q0 -47 19.5 -84.5t53.5 -58.5t79 -21zM399 640q-27 0 -45.5 8.5t-31.5 19t-26 19t-30 8.5t-26 -12.5t-9 -38.5h-101q0 80 36 117.5t87 37.5q28 0 47 -8t33 -19t26.5 -19t27.5 -8q20 0 28 13.5t8 36.5h101q-1 -76 -37 -115.5t-88 -39.5zM262 830l65 173h171 l-107 -173h-129z"></glyph>
      <glyph glyph-name="uni1E4E" unicode="Ṏ" d="M439 -12q-82 0 -153 29t-124 81t-82.5 122.5t-29.5 152.5q0 83 29 153t82 122t124 80.5t154 28.5t154 -29t124 -80.5t82.5 -121.5t29.5 -153q0 -82 -30 -152.5t-83 -122.5t-123.5 -81t-153.5 -29zM439 112q55 0 101 19.5t80.5 54.5t53 83t18.5 104t-18.5 103.5t-53 83 t-80.5 54.5t-101 19q-54 0 -100 -19t-80.5 -54.5t-53.5 -83t-19 -103.5t19 -104t53.5 -83t80.5 -54.5t100 -19.5zM511 842q-27 0 -45.5 8.5t-31.5 19t-26 19t-30 8.5t-26 -12.5t-9 -38.5h-101q0 80 36 117.5t87 37.5q28 0 47 -8t33 -19t26.5 -19t27.5 -8q20 0 28 13.5 t8 36.5h101q-1 -76 -37 -115.5t-88 -39.5zM261 1037v138h138v-138h-138zM479 1037v138h137v-138h-137z"></glyph>
      <glyph glyph-name="uni1E4F" unicode="ṏ" d="M327 -12q-80 0 -145.5 37t-104 101t-38.5 146t38.5 146t103.5 101t146 37q80 0 145 -37t103.5 -100.5t38.5 -146.5q0 -82 -39 -146t-104 -101t-144 -37zM327 108q44 0 77.5 21t53 58.5t19.5 84.5q0 48 -19.5 84.5t-53 58t-77.5 21.5q-45 0 -79 -21.5t-53.5 -58 t-19.5 -84.5q0 -47 19.5 -84.5t53.5 -58.5t79 -21zM399 640q-27 0 -45.5 8.5t-31.5 19t-26 19t-30 8.5t-26 -12.5t-9 -38.5h-101q0 80 36 117.5t87 37.5q28 0 47 -8t33 -19t26.5 -19t27.5 -8q20 0 28 13.5t8 36.5h101q-1 -76 -37 -115.5t-88 -39.5zM149 835v138h138v-138 h-138zM367 835v138h137v-138h-137z"></glyph>
      <glyph glyph-name="uni1E50" unicode="Ṑ" d="M439 -12q-82 0 -153 29t-124 81t-82.5 122.5t-29.5 152.5q0 83 29 153t82 122t124 80.5t154 28.5t154 -29t124 -80.5t82.5 -121.5t29.5 -153q0 -82 -30 -152.5t-83 -122.5t-123.5 -81t-153.5 -29zM439 112q55 0 101 19.5t80.5 54.5t53 83t18.5 104t-18.5 103.5t-53 83 t-80.5 54.5t-101 19q-54 0 -100 -19t-80.5 -54.5t-53.5 -83t-19 -103.5t19 -104t53.5 -83t80.5 -54.5t100 -19.5zM278 862v108h323v-108h-323zM375 1032l-106 173h170l65 -173h-129z"></glyph>
      <glyph glyph-name="uni1E51" unicode="ṑ" d="M327 -12q-80 0 -145.5 37t-104 101t-38.5 146t38.5 146t103.5 101t146 37q80 0 145 -37t103.5 -100.5t38.5 -146.5q0 -82 -39 -146t-104 -101t-144 -37zM327 108q44 0 77.5 21t53 58.5t19.5 84.5q0 48 -19.5 84.5t-53 58t-77.5 21.5q-45 0 -79 -21.5t-53.5 -58 t-19.5 -84.5q0 -47 19.5 -84.5t53.5 -58.5t79 -21zM165 660v108h323v-108h-323zM262 830l-106 173h170l65 -173h-129z"></glyph>
      <glyph glyph-name="uni1E52" unicode="Ṓ" d="M439 -12q-82 0 -153 29t-124 81t-82.5 122.5t-29.5 152.5q0 83 29 153t82 122t124 80.5t154 28.5t154 -29t124 -80.5t82.5 -121.5t29.5 -153q0 -82 -30 -152.5t-83 -122.5t-123.5 -81t-153.5 -29zM439 112q55 0 101 19.5t80.5 54.5t53 83t18.5 104t-18.5 103.5t-53 83 t-80.5 54.5t-101 19q-54 0 -100 -19t-80.5 -54.5t-53.5 -83t-19 -103.5t19 -104t53.5 -83t80.5 -54.5t100 -19.5zM372 1032l65 173h171l-107 -173h-129zM276 862v108h322v-108h-322z"></glyph>
      <glyph glyph-name="uni1E53" unicode="ṓ" d="M327 -12q-80 0 -145.5 37t-104 101t-38.5 146t38.5 146t103.5 101t146 37q80 0 145 -37t103.5 -100.5t38.5 -146.5q0 -82 -39 -146t-104 -101t-144 -37zM327 108q44 0 77.5 21t53 58.5t19.5 84.5q0 48 -19.5 84.5t-53 58t-77.5 21.5q-45 0 -79 -21.5t-53.5 -58 t-19.5 -84.5q0 -47 19.5 -84.5t53.5 -58.5t79 -21zM260 830l65 173h171l-107 -173h-129zM164 660v108h322v-108h-322z"></glyph>
      <glyph glyph-name="uni1E5A" unicode="Ṛ" d="M72 0v745h277q76 0 134.5 -27.5t91.5 -80t33 -127.5q0 -77 -36.5 -131t-98.5 -80l171 -299h-154l-183 327l88 -52h-187v-275h-136zM208 395h143q37 0 64 14.5t42 40.5t15 60q0 35 -15 60.5t-42 40t-64 14.5h-143v-230zM261 -227v137h137v-137h-137z"></glyph>
      <glyph glyph-name="uni1E5B" unicode="ṛ" d="M61 0v544h123v-121l-10 18q19 61 59.5 85t97.5 24h32v-116h-47q-56 0 -90 -34.5t-34 -96.5v-303h-131zM58 -227v137h137v-137h-137z"></glyph>
      <glyph glyph-name="uni1E5E" unicode="Ṟ" d="M72 0v745h277q76 0 134.5 -27.5t91.5 -80t33 -127.5q0 -77 -36.5 -131t-98.5 -80l171 -299h-154l-183 327l88 -52h-187v-275h-136zM208 395h143q37 0 64 14.5t42 40.5t15 60q0 35 -15 60.5t-42 40t-64 14.5h-143v-230zM169 -207v107h322v-107h-322z"></glyph>
      <glyph glyph-name="uni1E5F" unicode="ṟ" d="M61 0v544h123v-121l-10 18q19 61 59.5 85t97.5 24h32v-116h-47q-56 0 -90 -34.5t-34 -96.5v-303h-131zM-34 -207v107h322v-107h-322z"></glyph>
      <glyph glyph-name="uni1E60" unicode="Ṡ" d="M338 -12q-71 0 -131.5 26t-104 72.5t-63.5 108.5l113 49q27 -64 78 -100.5t115 -36.5q36 0 62.5 11.5t41 31.5t14.5 48q0 33 -19.5 54.5t-58.5 33.5l-143 46q-87 27 -131 81t-44 127q0 64 31.5 113t88 76.5t129.5 27.5q67 0 123 -23.5t96.5 -65t60.5 -97.5l-112 -50 q-22 56 -66 86.5t-102 30.5q-34 0 -60 -11.5t-40.5 -32t-14.5 -48.5q0 -31 20 -54.5t61 -36.5l137 -43q89 -29 133.5 -80t44.5 -126q0 -64 -33 -113t-91 -77t-135 -28zM251 842v138h137v-138h-137z"></glyph>
      <glyph glyph-name="uni1E61" unicode="ṡ" d="M268 -12q-87 0 -151.5 41.5t-88.5 112.5l98 47q21 -46 58.5 -72t83.5 -26q36 0 57 16t21 42q0 16 -8.5 26.5t-23 18t-31.5 12.5l-89 25q-69 20 -104.5 61t-35.5 97q0 50 25.5 87.5t71 58.5t104.5 21q77 0 136 -37t84 -104l-100 -47q-14 37 -47 59t-74 22q-33 0 -52 -15 t-19 -39q0 -15 8 -26t22.5 -18t33.5 -13l87 -26q67 -20 103.5 -60t36.5 -98q0 -49 -26 -86.5t-72 -58.5t-108 -21zM189 640v138h137v-138h-137z"></glyph>
      <glyph glyph-name="uni1E62" unicode="Ṣ" d="M338 -12q-71 0 -131.5 26t-104 72.5t-63.5 108.5l113 49q27 -64 78 -100.5t115 -36.5q36 0 62.5 11.5t41 31.5t14.5 48q0 33 -19.5 54.5t-58.5 33.5l-143 46q-87 27 -131 81t-44 127q0 64 31.5 113t88 76.5t129.5 27.5q67 0 123 -23.5t96.5 -65t60.5 -97.5l-112 -50 q-22 56 -66 86.5t-102 30.5q-34 0 -60 -11.5t-40.5 -32t-14.5 -48.5q0 -31 20 -54.5t61 -36.5l137 -43q89 -29 133.5 -80t44.5 -126q0 -64 -33 -113t-91 -77t-135 -28zM269 -227v137h137v-137h-137z"></glyph>
      <glyph glyph-name="uni1E63" unicode="ṣ" d="M268 -12q-87 0 -151.5 41.5t-88.5 112.5l98 47q21 -46 58.5 -72t83.5 -26q36 0 57 16t21 42q0 16 -8.5 26.5t-23 18t-31.5 12.5l-89 25q-69 20 -104.5 61t-35.5 97q0 50 25.5 87.5t71 58.5t104.5 21q77 0 136 -37t84 -104l-100 -47q-14 37 -47 59t-74 22q-33 0 -52 -15 t-19 -39q0 -15 8 -26t22.5 -18t33.5 -13l87 -26q67 -20 103.5 -60t36.5 -98q0 -49 -26 -86.5t-72 -58.5t-108 -21zM189 -227v137h137v-137h-137z"></glyph>
      <glyph glyph-name="uni1E64" unicode="Ṥ" d="M338 -12q-71 0 -131.5 26t-104 72.5t-63.5 108.5l113 49q27 -64 78 -100.5t115 -36.5q36 0 62.5 11.5t41 31.5t14.5 48q0 33 -19.5 54.5t-58.5 33.5l-143 46q-87 27 -131 81t-44 127q0 64 31.5 113t88 76.5t129.5 27.5q67 0 123 -23.5t96.5 -65t60.5 -97.5l-112 -50 q-22 56 -66 86.5t-102 30.5q-34 0 -60 -11.5t-40.5 -32t-14.5 -48.5q0 -31 20 -54.5t61 -36.5l137 -43q89 -29 133.5 -80t44.5 -126q0 -64 -33 -113t-91 -77t-135 -28zM244 842l65 150h186l-107 -150h-144zM107 950v137h137v-137h-137z"></glyph>
      <glyph glyph-name="uni1E65" unicode="ṥ" d="M268 -12q-87 0 -151.5 41.5t-88.5 112.5l98 47q21 -46 58.5 -72t83.5 -26q36 0 57 16t21 42q0 16 -8.5 26.5t-23 18t-31.5 12.5l-89 25q-69 20 -104.5 61t-35.5 97q0 50 25.5 87.5t71 58.5t104.5 21q77 0 136 -37t84 -104l-100 -47q-14 37 -47 59t-74 22q-33 0 -52 -15 t-19 -39q0 -15 8 -26t22.5 -18t33.5 -13l87 -26q67 -20 103.5 -60t36.5 -98q0 -49 -26 -86.5t-72 -58.5t-108 -21zM182 640l65 150h186l-107 -150h-144zM45 748v137h137v-137h-137z"></glyph>
      <glyph glyph-name="uni1E66" unicode="Ṧ" d="M338 -12q-71 0 -131.5 26t-104 72.5t-63.5 108.5l113 49q27 -64 78 -100.5t115 -36.5q36 0 62.5 11.5t41 31.5t14.5 48q0 33 -19.5 54.5t-58.5 33.5l-143 46q-87 27 -131 81t-44 127q0 64 31.5 113t88 76.5t129.5 27.5q67 0 123 -23.5t96.5 -65t60.5 -97.5l-112 -50 q-22 56 -66 86.5t-102 30.5q-34 0 -60 -11.5t-40.5 -32t-14.5 -48.5q0 -31 20 -54.5t61 -36.5l137 -43q89 -29 133.5 -80t44.5 -126q0 -64 -33 -113t-91 -77t-135 -28zM242 842l-117 155h130l65 -80l65 80h130l-118 -155h-155zM251 1037v138h138v-138h-138z"></glyph>
      <glyph glyph-name="uni1E67" unicode="ṧ" d="M268 -12q-87 0 -151.5 41.5t-88.5 112.5l98 47q21 -46 58.5 -72t83.5 -26q36 0 57 16t21 42q0 16 -8.5 26.5t-23 18t-31.5 12.5l-89 25q-69 20 -104.5 61t-35.5 97q0 50 25.5 87.5t71 58.5t104.5 21q77 0 136 -37t84 -104l-100 -47q-14 37 -47 59t-74 22q-33 0 -52 -15 t-19 -39q0 -15 8 -26t22.5 -18t33.5 -13l87 -26q67 -20 103.5 -60t36.5 -98q0 -49 -26 -86.5t-72 -58.5t-108 -21zM180 640l-117 155h130l65 -80l65 80h130l-118 -155h-155zM189 835v138h138v-138h-138z"></glyph>
      <glyph glyph-name="uni1E68" unicode="Ṩ" d="M338 -12q-71 0 -131.5 26t-104 72.5t-63.5 108.5l113 49q27 -64 78 -100.5t115 -36.5q36 0 62.5 11.5t41 31.5t14.5 48q0 33 -19.5 54.5t-58.5 33.5l-143 46q-87 27 -131 81t-44 127q0 64 31.5 113t88 76.5t129.5 27.5q67 0 123 -23.5t96.5 -65t60.5 -97.5l-112 -50 q-22 56 -66 86.5t-102 30.5q-34 0 -60 -11.5t-40.5 -32t-14.5 -48.5q0 -31 20 -54.5t61 -36.5l137 -43q89 -29 133.5 -80t44.5 -126q0 -64 -33 -113t-91 -77t-135 -28zM269 -227v137h137v-137h-137zM251 842v138h137v-138h-137z"></glyph>
      <glyph glyph-name="uni1E69" unicode="ṩ" d="M268 -12q-87 0 -151.5 41.5t-88.5 112.5l98 47q21 -46 58.5 -72t83.5 -26q36 0 57 16t21 42q0 16 -8.5 26.5t-23 18t-31.5 12.5l-89 25q-69 20 -104.5 61t-35.5 97q0 50 25.5 87.5t71 58.5t104.5 21q77 0 136 -37t84 -104l-100 -47q-14 37 -47 59t-74 22q-33 0 -52 -15 t-19 -39q0 -15 8 -26t22.5 -18t33.5 -13l87 -26q67 -20 103.5 -60t36.5 -98q0 -49 -26 -86.5t-72 -58.5t-108 -21zM189 -227v137h137v-137h-137zM189 640v138h137v-138h-137z"></glyph>
      <glyph glyph-name="uni1E6C" unicode="Ṭ" d="M204 0v625h-193v120h520v-120h-190v-625h-137zM203 -227v137h137v-137h-137z"></glyph>
      <glyph glyph-name="uni1E6D" unicode="ṭ" d="M309 -6q-92 0 -142.5 50.5t-50.5 142.5v240h-94v117h10q40 0 62 21t22 61v42h131v-124h125v-117h-125v-233q0 -27 9.5 -46t30 -29t52.5 -10q7 0 16.5 1t18.5 2v-112q-14 -2 -32 -4t-33 -2zM234 -227v137h137v-137h-137z"></glyph>
      <glyph glyph-name="uni1E6E" unicode="Ṯ" d="M204 0v625h-193v120h520v-120h-190v-625h-137zM110 -207v107h322v-107h-322z"></glyph>
      <glyph glyph-name="uni1E6F" unicode="ṯ" d="M309 -6q-92 0 -142.5 50.5t-50.5 142.5v240h-94v117h10q40 0 62 21t22 61v42h131v-124h125v-117h-125v-233q0 -27 9.5 -46t30 -29t52.5 -10q7 0 16.5 1t18.5 2v-112q-14 -2 -32 -4t-33 -2zM141 -207v107h322v-107h-322z"></glyph>
      <glyph glyph-name="uni1E78" unicode="Ṹ" d="M359 -12q-86 0 -152.5 36t-104.5 99t-38 143v479h136v-472q0 -46 20.5 -83t56.5 -57.5t82 -20.5q47 0 82.5 20.5t56 57.5t20.5 83v472h136v-479q0 -80 -38 -143t-104.5 -99t-152.5 -36zM431 842q-27 0 -45.5 8.5t-31.5 19t-26 19t-30 8.5t-26 -12.5t-9 -38.5h-101 q0 80 36 117.5t87 37.5q28 0 47 -8t33 -19t26.5 -19t27.5 -8q20 0 28 13.5t8 36.5h101q-1 -76 -37 -115.5t-88 -39.5zM294 1032l65 173h171l-107 -173h-129z"></glyph>
      <glyph glyph-name="uni1E79" unicode="ṹ" d="M255 -12q-63 0 -109.5 28t-71 78t-24.5 117v333h131v-322q0 -34 13.5 -59.5t39 -40t57.5 -14.5t57 14.5t39 40.5t14 62v319h131v-544h-124v107l11 -19q-19 -50 -62.5 -75t-101.5 -25zM369 640q-27 0 -45.5 8.5t-31.5 19t-26 19t-30 8.5t-26 -12.5t-9 -38.5h-101 q0 80 36 117.5t87 37.5q28 0 47 -8t33 -19t26.5 -19t27.5 -8q20 0 28 13.5t8 36.5h101q-1 -76 -37 -115.5t-88 -39.5zM232 830l65 173h171l-107 -173h-129z"></glyph>
      <glyph glyph-name="uni1E7A" unicode="Ṻ" d="M359 -12q-86 0 -152.5 36t-104.5 99t-38 143v479h136v-472q0 -46 20.5 -83t56.5 -57.5t82 -20.5q47 0 82.5 20.5t56 57.5t20.5 83v472h136v-479q0 -80 -38 -143t-104.5 -99t-152.5 -36zM198 862v108h322v-108h-322zM182 1037v138h137v-138h-137zM399 1037v138h138v-138 h-138z"></glyph>
      <glyph glyph-name="uni1E7B" unicode="ṻ" d="M255 -12q-63 0 -109.5 28t-71 78t-24.5 117v333h131v-322q0 -34 13.5 -59.5t39 -40t57.5 -14.5t57 14.5t39 40.5t14 62v319h131v-544h-124v107l11 -19q-19 -50 -62.5 -75t-101.5 -25zM136 660v108h322v-108h-322zM120 835v138h137v-138h-137zM337 835v138h138v-138h-138z "></glyph>
      <glyph glyph-name="Wgrave" unicode="Ẁ" d="M211 0l-200 745h146l157 -635h-38l164 635h141l163 -635h-38l157 635h146l-200 -745h-156l-165 618h44l-165 -618h-156zM446 842l-106 173h170l65 -173h-129z"></glyph>
      <glyph glyph-name="wgrave" unicode="ẁ" d="M198 0l-187 544h138l137 -413l-48 1l146 412h116l145 -412l-48 -1l137 413h138l-187 -544h-117l-148 431h44l-150 -431h-116zM378 640l-106 173h170l65 -173h-129z"></glyph>
      <glyph glyph-name="Wacute" unicode="Ẃ" d="M211 0l-200 745h146l157 -635h-38l164 635h141l163 -635h-38l157 635h146l-200 -745h-156l-165 618h44l-165 -618h-156zM446 842l65 173h170l-106 -173h-129z"></glyph>
      <glyph glyph-name="wacute" unicode="ẃ" d="M198 0l-187 544h138l137 -413l-48 1l146 412h116l145 -412l-48 -1l137 413h138l-187 -544h-117l-148 431h44l-150 -431h-116zM377 640l65 173h170l-106 -173h-129z"></glyph>
      <glyph glyph-name="Wdieresis" unicode="Ẅ" d="M211 0l-200 745h146l157 -635h-38l164 635h141l163 -635h-38l157 635h146l-200 -745h-156l-165 618h44l-165 -618h-156zM333 842v138h137v-138h-137zM550 842v138h138v-138h-138z"></glyph>
      <glyph glyph-name="wdieresis" unicode="ẅ" d="M198 0l-187 544h138l137 -413l-48 1l146 412h116l145 -412l-48 -1l137 413h138l-187 -544h-117l-148 431h44l-150 -431h-116zM265 640v138h137v-138h-137zM482 640v138h138v-138h-138z"></glyph>
      <glyph glyph-name="uni1E8E" unicode="Ẏ" d="M262 0v330l-251 415h155l192 -324h-55l191 324h155l-250 -414v-331h-137zM262 842v138h137v-138h-137z"></glyph>
      <glyph glyph-name="uni1E8F" unicode="ẏ" d="M127 -220q-22 0 -43 3.5t-38 12.5v109q13 -3 31.5 -6t34.5 -3q45 0 65.5 20.5t36.5 54.5l36 84l-2 -110l-237 599h141l166 -442h-50l165 442h142l-237 -599q-21 -52 -51 -89t-69.5 -56.5t-90.5 -19.5zM225 640v138h137v-138h-137z"></glyph>
      <glyph glyph-name="uni1E92" unicode="Ẓ" d="M14 0v107l361 518h-340v120h513v-107l-360 -518h370v-120h-544zM218 -227v137h137v-137h-137z"></glyph>
      <glyph glyph-name="uni1E93" unicode="ẓ" d="M14 0v106l316 366l20 -45h-322v117h438v-107l-310 -366l-20 45h332v-116h-454zM176 -227v137h137v-137h-137z"></glyph>
      <glyph glyph-name="uni1E97" unicode="ẗ" d="M309 -6q-92 0 -142.5 50.5t-50.5 142.5v240h-94v117h10q40 0 62 21t22 61v42h131v-124h125v-117h-125v-233q0 -27 9.5 -46t30 -29t52.5 -10q7 0 16.5 1t18.5 2v-112q-14 -2 -32 -4t-33 -2zM4 764v138h137v-138h-137zM221 764v138h138v-138h-138z"></glyph>
      <glyph glyph-name="uni1E9E" unicode="ẞ" d="M338 -12q-71 0 -131.5 26t-104 72.5t-63.5 108.5l113 49q27 -64 78 -100.5t115 -36.5q36 0 62.5 11.5t41 31.5t14.5 48q0 33 -19.5 54.5t-58.5 33.5l-143 46q-87 27 -131 81t-44 127q0 64 31.5 113t88 76.5t129.5 27.5q67 0 123 -23.5t96.5 -65t60.5 -97.5l-112 -50 q-22 56 -66 86.5t-102 30.5q-34 0 -60 -11.5t-40.5 -32t-14.5 -48.5q0 -31 20 -54.5t61 -36.5l137 -43q89 -29 133.5 -80t44.5 -126q0 -64 -33 -113t-91 -77t-135 -28zM985 -12q-71 0 -131.5 26t-104 72.5t-63.5 108.5l113 49q27 -64 78 -100.5t115 -36.5q36 0 62.5 11.5 t41 31.5t14.5 48q0 33 -19.5 54.5t-58.5 33.5l-143 46q-87 27 -131 81t-44 127q0 64 31.5 113t88 76.5t129.5 27.5q67 0 123 -23.5t96.5 -65t60.5 -97.5l-112 -50q-22 56 -66 86.5t-102 30.5q-34 0 -60 -11.5t-40.5 -32t-14.5 -48.5q0 -31 20 -54.5t61 -36.5l137 -43 q89 -29 133.5 -80t44.5 -126q0 -64 -33 -113t-91 -77t-135 -28z"></glyph>
      <glyph glyph-name="uni1EA0" unicode="Ạ" d="M11 0l257 745h176l257 -745h-148l-53 160h-288l-54 -160h-147zM251 280h210l-124 371h38zM288 -227v137h137v-137h-137z"></glyph>
      <glyph glyph-name="uni1EA1" unicode="ạ" d="M226 -12q-57 0 -99 19t-65 54.5t-23 82.5q0 45 20 80.5t62 59.5t106 34l178 29v-100l-153 -26q-39 -7 -58 -25t-19 -47q0 -28 21.5 -44.5t53.5 -16.5q41 0 72.5 17.5t49 48.5t17.5 68v140q0 35 -27.5 58.5t-72.5 23.5q-42 0 -74.5 -22.5t-47.5 -59.5l-107 52 q16 43 50.5 74.5t81.5 49.5t102 18q67 0 118 -24.5t79.5 -68t28.5 -101.5v-362h-124v93l28 2q-21 -35 -50 -58.5t-66 -36t-82 -12.5zM222 -227v137h137v-137h-137z"></glyph>
      <glyph glyph-name="uni1EA2" unicode="Ả" d="M11 0l257 745h176l257 -745h-148l-53 160h-288l-54 -160h-147zM251 280h210l-124 371h38zM366 802l-57 65q28 14 39 28t11 32q0 19 -15 30t-42 11q-12 0 -25 -1.5t-25 -7.5l-15 83q17 9 40 13t48 4q68 0 109.5 -33t41.5 -87q0 -41 -29.5 -76.5t-80.5 -60.5z"></glyph>
      <glyph glyph-name="uni1EA3" unicode="ả" d="M226 -12q-57 0 -99 19t-65 54.5t-23 82.5q0 45 20 80.5t62 59.5t106 34l178 29v-100l-153 -26q-39 -7 -58 -25t-19 -47q0 -28 21.5 -44.5t53.5 -16.5q41 0 72.5 17.5t49 48.5t17.5 68v140q0 35 -27.5 58.5t-72.5 23.5q-42 0 -74.5 -22.5t-47.5 -59.5l-107 52 q16 43 50.5 74.5t81.5 49.5t102 18q67 0 118 -24.5t79.5 -68t28.5 -101.5v-362h-124v93l28 2q-21 -35 -50 -58.5t-66 -36t-82 -12.5zM304 600l-57 65q28 14 39 28t11 32q0 19 -15 30t-42 11q-12 0 -25 -1.5t-25 -7.5l-15 83q17 9 40 13t48 4q68 0 109.5 -33t41.5 -87 q0 -41 -29.5 -76.5t-80.5 -60.5z"></glyph>
      <glyph glyph-name="uni1EA4" unicode="Ấ" d="M11 0l257 745h176l257 -745h-148l-53 160h-288l-54 -160h-147zM251 280h210l-124 371h38zM162 842l117 155h155l118 -155h-130l-65 80l-65 -80h-130zM509 920l46 145h148l-87 -145h-107z"></glyph>
      <glyph glyph-name="uni1EA5" unicode="ấ" d="M226 -12q-57 0 -99 19t-65 54.5t-23 82.5q0 45 20 80.5t62 59.5t106 34l178 29v-100l-153 -26q-39 -7 -58 -25t-19 -47q0 -28 21.5 -44.5t53.5 -16.5q41 0 72.5 17.5t49 48.5t17.5 68v140q0 35 -27.5 58.5t-72.5 23.5q-42 0 -74.5 -22.5t-47.5 -59.5l-107 52 q16 43 50.5 74.5t81.5 49.5t102 18q67 0 118 -24.5t79.5 -68t28.5 -101.5v-362h-124v93l28 2q-21 -35 -50 -58.5t-66 -36t-82 -12.5zM100 640l117 155h155l118 -155h-130l-65 80l-65 -80h-130zM447 718l46 145h148l-87 -145h-107z"></glyph>
      <glyph glyph-name="uni1EA6" unicode="Ầ" d="M11 0l257 745h176l257 -745h-148l-53 160h-288l-54 -160h-147zM251 280h210l-124 371h38zM162 842l117 155h155l118 -155h-130l-65 80l-65 -80h-130zM565 920l-86 145h148l45 -145h-107z"></glyph>
      <glyph glyph-name="uni1EA7" unicode="ầ" d="M226 -12q-57 0 -99 19t-65 54.5t-23 82.5q0 45 20 80.5t62 59.5t106 34l178 29v-100l-153 -26q-39 -7 -58 -25t-19 -47q0 -28 21.5 -44.5t53.5 -16.5q41 0 72.5 17.5t49 48.5t17.5 68v140q0 35 -27.5 58.5t-72.5 23.5q-42 0 -74.5 -22.5t-47.5 -59.5l-107 52 q16 43 50.5 74.5t81.5 49.5t102 18q67 0 118 -24.5t79.5 -68t28.5 -101.5v-362h-124v93l28 2q-21 -35 -50 -58.5t-66 -36t-82 -12.5zM100 640l117 155h155l118 -155h-130l-65 80l-65 -80h-130zM503 718l-86 145h148l45 -145h-107z"></glyph>
      <glyph glyph-name="uni1EA8" unicode="Ẩ" d="M11 0l257 745h176l257 -745h-148l-53 160h-288l-54 -160h-147zM251 280h210l-124 371h38zM162 842l117 155h155l118 -155h-130l-65 80l-65 -80h-130zM550 911l-52 61q27 13 37 25.5t10 29.5t-14 28t-39 11q-11 0 -23.5 -1.5t-23.5 -7.5l-14 77q17 8 37.5 12t44.5 4 q63 0 101.5 -30.5t38.5 -81.5q0 -38 -28 -71t-75 -56z"></glyph>
      <glyph glyph-name="uni1EA9" unicode="ẩ" d="M226 -12q-57 0 -99 19t-65 54.5t-23 82.5q0 45 20 80.5t62 59.5t106 34l178 29v-100l-153 -26q-39 -7 -58 -25t-19 -47q0 -28 21.5 -44.5t53.5 -16.5q41 0 72.5 17.5t49 48.5t17.5 68v140q0 35 -27.5 58.5t-72.5 23.5q-42 0 -74.5 -22.5t-47.5 -59.5l-107 52 q16 43 50.5 74.5t81.5 49.5t102 18q67 0 118 -24.5t79.5 -68t28.5 -101.5v-362h-124v93l28 2q-21 -35 -50 -58.5t-66 -36t-82 -12.5zM100 640l117 155h155l118 -155h-130l-65 80l-65 -80h-130zM488 709l-52 61q27 13 37 25.5t10 29.5t-14 28t-39 11q-11 0 -23.5 -1.5 t-23.5 -7.5l-14 77q17 8 37.5 12t44.5 4q63 0 101.5 -30.5t38.5 -81.5q0 -38 -28 -71t-75 -56z"></glyph>
      <glyph glyph-name="uni1EAA" unicode="Ẫ" d="M11 0l257 745h176l257 -745h-148l-53 160h-288l-54 -160h-147zM251 280h210l-124 371h38zM161 842l117 155h155l118 -155h-130l-65 80l-65 -80h-130zM419 1058q-23 0 -38.5 8.5t-27 19t-22 19t-24.5 8.5t-20.5 -13t-6.5 -38h-99q0 53 15.5 87.5t40.5 51t54 16.5 q24 0 40 -8t28 -19t22.5 -19t23.5 -8q15 0 20.5 13.5t5.5 36.5h100q-1 -77 -34.5 -116t-77.5 -39z"></glyph>
      <glyph glyph-name="uni1EAB" unicode="ẫ" d="M226 -12q-57 0 -99 19t-65 54.5t-23 82.5q0 45 20 80.5t62 59.5t106 34l178 29v-100l-153 -26q-39 -7 -58 -25t-19 -47q0 -28 21.5 -44.5t53.5 -16.5q41 0 72.5 17.5t49 48.5t17.5 68v140q0 35 -27.5 58.5t-72.5 23.5q-42 0 -74.5 -22.5t-47.5 -59.5l-107 52 q16 43 50.5 74.5t81.5 49.5t102 18q67 0 118 -24.5t79.5 -68t28.5 -101.5v-362h-124v93l28 2q-21 -35 -50 -58.5t-66 -36t-82 -12.5zM100 640l117 155h155l118 -155h-130l-65 80l-65 -80h-130zM358 856q-23 0 -38.5 8.5t-27 19t-22 19t-24.5 8.5t-20.5 -13t-6.5 -38h-99 q0 53 15.5 87.5t40.5 51t54 16.5q24 0 40 -8t28 -19t22.5 -19t23.5 -8q15 0 20.5 13.5t5.5 36.5h100q-1 -77 -34.5 -116t-77.5 -39z"></glyph>
      <glyph glyph-name="uni1EAC" unicode="Ậ" d="M11 0l257 745h176l257 -745h-148l-53 160h-288l-54 -160h-147zM251 280h210l-124 371h38zM288 -227v137h137v-137h-137zM162 842l117 165h155l118 -165h-130l-65 90l-65 -90h-130z"></glyph>
      <glyph glyph-name="uni1EAD" unicode="ậ" d="M226 -12q-57 0 -99 19t-65 54.5t-23 82.5q0 45 20 80.5t62 59.5t106 34l178 29v-100l-153 -26q-39 -7 -58 -25t-19 -47q0 -28 21.5 -44.5t53.5 -16.5q41 0 72.5 17.5t49 48.5t17.5 68v140q0 35 -27.5 58.5t-72.5 23.5q-42 0 -74.5 -22.5t-47.5 -59.5l-107 52 q16 43 50.5 74.5t81.5 49.5t102 18q67 0 118 -24.5t79.5 -68t28.5 -101.5v-362h-124v93l28 2q-21 -35 -50 -58.5t-66 -36t-82 -12.5zM222 -227v137h137v-137h-137zM100 640l117 165h155l118 -165h-130l-65 90l-65 -90h-130z"></glyph>
      <glyph glyph-name="uni1EAE" unicode="Ắ" d="M11 0l257 745h176l257 -745h-148l-53 160h-288l-54 -160h-147zM251 280h210l-124 371h38zM356 845q-68 0 -112 23.5t-65.5 60t-22.5 76.5h129q1 -28 20 -43.5t51 -15.5q34 0 52.5 15.5t20.5 43.5h128q-1 -42 -22.5 -78.5t-65.5 -59t-113 -22.5zM291 1035l66 173h170 l-106 -173h-130z"></glyph>
      <glyph glyph-name="uni1EAF" unicode="ắ" d="M226 -12q-57 0 -99 19t-65 54.5t-23 82.5q0 45 20 80.5t62 59.5t106 34l178 29v-100l-153 -26q-39 -7 -58 -25t-19 -47q0 -28 21.5 -44.5t53.5 -16.5q41 0 72.5 17.5t49 48.5t17.5 68v140q0 35 -27.5 58.5t-72.5 23.5q-42 0 -74.5 -22.5t-47.5 -59.5l-107 52 q16 43 50.5 74.5t81.5 49.5t102 18q67 0 118 -24.5t79.5 -68t28.5 -101.5v-362h-124v93l28 2q-21 -35 -50 -58.5t-66 -36t-82 -12.5zM295 644q-68 0 -112 23.5t-65.5 60t-22.5 76.5h129q1 -28 20 -43.5t51 -15.5q34 0 52.5 15.5t20.5 43.5h128q-1 -42 -22.5 -78.5t-65.5 -59 t-113 -22.5zM230 834l66 173h170l-106 -173h-130z"></glyph>
      <glyph glyph-name="uni1EB0" unicode="Ằ" d="M11 0l257 745h176l257 -745h-148l-53 160h-288l-54 -160h-147zM251 280h210l-124 371h38zM356 845q-68 0 -112 22.5t-65.5 59t-22.5 78.5h128q1 -28 20 -43.5t52 -15.5t51.5 15.5t20.5 43.5h129q-1 -40 -22.5 -76.5t-66 -60t-112.5 -23.5zM292 1035l-107 173h171l65 -173 h-129z"></glyph>
      <glyph glyph-name="uni1EB1" unicode="ằ" d="M226 -12q-57 0 -99 19t-65 54.5t-23 82.5q0 45 20 80.5t62 59.5t106 34l178 29v-100l-153 -26q-39 -7 -58 -25t-19 -47q0 -28 21.5 -44.5t53.5 -16.5q41 0 72.5 17.5t49 48.5t17.5 68v140q0 35 -27.5 58.5t-72.5 23.5q-42 0 -74.5 -22.5t-47.5 -59.5l-107 52 q16 43 50.5 74.5t81.5 49.5t102 18q67 0 118 -24.5t79.5 -68t28.5 -101.5v-362h-124v93l28 2q-21 -35 -50 -58.5t-66 -36t-82 -12.5zM295 644q-68 0 -112 22.5t-65.5 59t-22.5 78.5h128q1 -28 20 -43.5t52 -15.5t51.5 15.5t20.5 43.5h129q-1 -40 -22.5 -76.5t-66 -60 t-112.5 -23.5zM231 834l-107 173h171l65 -173h-129z"></glyph>
      <glyph glyph-name="uni1EB2" unicode="Ẳ" d="M11 0l257 745h176l257 -745h-148l-53 160h-288l-54 -160h-147zM251 280h210l-124 371h38zM356 845q-68 0 -112 23.5t-65.5 60t-22.5 76.5h128q2 -28 21 -43.5t51 -15.5q34 0 52.5 15.5t20.5 43.5h128q-2 -41 -24 -77.5t-65.5 -59.5t-111.5 -23zM365 1011l-56 65 q28 14 39 27.5t11 32.5q0 18 -15 29.5t-42 11.5q-12 0 -25 -1.5t-26 -7.5l-15 82q18 9 40.5 13.5t47.5 4.5q69 0 110 -33t41 -88q0 -41 -29 -76t-81 -60z"></glyph>
      <glyph glyph-name="uni1EB3" unicode="ẳ" d="M226 -12q-57 0 -99 19t-65 54.5t-23 82.5q0 45 20 80.5t62 59.5t106 34l178 29v-100l-153 -26q-39 -7 -58 -25t-19 -47q0 -28 21.5 -44.5t53.5 -16.5q41 0 72.5 17.5t49 48.5t17.5 68v140q0 35 -27.5 58.5t-72.5 23.5q-42 0 -74.5 -22.5t-47.5 -59.5l-107 52 q16 43 50.5 74.5t81.5 49.5t102 18q67 0 118 -24.5t79.5 -68t28.5 -101.5v-362h-124v93l28 2q-21 -35 -50 -58.5t-66 -36t-82 -12.5zM295 644q-68 0 -112 23.5t-65.5 60t-22.5 76.5h128q2 -28 21 -43.5t51 -15.5q34 0 52.5 15.5t20.5 43.5h128q-2 -41 -24 -77.5t-65.5 -59.5 t-111.5 -23zM304 810l-56 65q28 14 39 27.5t11 32.5q0 18 -15 29.5t-42 11.5q-12 0 -25 -1.5t-26 -7.5l-15 82q18 9 40.5 13.5t47.5 4.5q69 0 110 -33t41 -88q0 -41 -29 -76t-81 -60z"></glyph>
      <glyph glyph-name="uni1EB4" unicode="Ẵ" d="M11 0l257 745h176l257 -745h-148l-53 160h-288l-54 -160h-147zM251 280h210l-124 371h38zM418 1058q-23 0 -38 8.5t-26.5 19t-22 19t-24.5 8.5t-20.5 -13t-6.5 -38h-100q0 53 15.5 87.5t41 51t54.5 16.5q23 0 39 -8t28.5 -19t23 -19t22.5 -8q16 0 21 13.5t5 36.5h100 q-1 -77 -34.5 -116t-77.5 -39zM356 842q-68 0 -112.5 23.5t-65.5 60t-23 76.5h129q1 -28 20 -43.5t52 -15.5t52 15.5t20 43.5h128q-2 -41 -23.5 -77.5t-65 -59.5t-111.5 -23z"></glyph>
      <glyph glyph-name="uni1EB5" unicode="ẵ" d="M226 -12q-57 0 -99 19t-65 54.5t-23 82.5q0 45 20 80.5t62 59.5t106 34l178 29v-100l-153 -26q-39 -7 -58 -25t-19 -47q0 -28 21.5 -44.5t53.5 -16.5q41 0 72.5 17.5t49 48.5t17.5 68v140q0 35 -27.5 58.5t-72.5 23.5q-42 0 -74.5 -22.5t-47.5 -59.5l-107 52 q16 43 50.5 74.5t81.5 49.5t102 18q67 0 118 -24.5t79.5 -68t28.5 -101.5v-362h-124v93l28 2q-21 -35 -50 -58.5t-66 -36t-82 -12.5zM357 856q-23 0 -38 8.5t-26.5 19t-22 19t-24.5 8.5t-20.5 -13t-6.5 -38h-100q0 53 15.5 87.5t41 51t54.5 16.5q23 0 39 -8t28.5 -19t23 -19 t22.5 -8q16 0 21 13.5t5 36.5h100q-1 -77 -34.5 -116t-77.5 -39zM295 640q-68 0 -112.5 23.5t-65.5 60t-23 76.5h129q1 -28 20 -43.5t52 -15.5t52 15.5t20 43.5h128q-2 -41 -23.5 -77.5t-65 -59.5t-111.5 -23z"></glyph>
      <glyph glyph-name="uni1EB6" unicode="Ặ" d="M11 0l257 745h176l257 -745h-148l-53 160h-288l-54 -160h-147zM251 280h210l-124 371h38zM288 -227v137h137v-137h-137zM356 845q-68 0 -112 24t-65.5 61.5t-22.5 79.5h129q1 -30 20 -47t51 -17q34 0 52.5 17t20.5 47h128q-1 -43 -22.5 -81t-65.5 -61t-113 -23z"></glyph>
      <glyph glyph-name="uni1EB7" unicode="ặ" d="M226 -12q-57 0 -99 19t-65 54.5t-23 82.5q0 45 20 80.5t62 59.5t106 34l178 29v-100l-153 -26q-39 -7 -58 -25t-19 -47q0 -28 21.5 -44.5t53.5 -16.5q41 0 72.5 17.5t49 48.5t17.5 68v140q0 35 -27.5 58.5t-72.5 23.5q-42 0 -74.5 -22.5t-47.5 -59.5l-107 52 q16 43 50.5 74.5t81.5 49.5t102 18q67 0 118 -24.5t79.5 -68t28.5 -101.5v-362h-124v93l28 2q-21 -35 -50 -58.5t-66 -36t-82 -12.5zM222 -227v137h137v-137h-137zM295 644q-68 0 -112 24t-65.5 61.5t-22.5 79.5h129q1 -30 20 -47t51 -17q34 0 52.5 17t20.5 47h128 q-1 -43 -22.5 -81t-65.5 -61t-113 -23z"></glyph>
      <glyph glyph-name="uni1EB8" unicode="Ẹ" d="M72 0v745h495v-120h-359v-191h339v-120h-339v-194h359v-120h-495zM252 -227v137h137v-137h-137z"></glyph>
      <glyph glyph-name="uni1EB9" unicode="ẹ" d="M319 -12q-84 0 -147 38t-98 103t-35 144q0 82 35.5 145.5t97 100.5t137.5 37q64 0 112.5 -21t82.5 -58t52 -84.5t18 -102.5q0 -14 -1.5 -29t-5.5 -26h-420v100h346l-62 -47q9 46 -4.5 82t-44 57t-73.5 21q-41 0 -73 -20.5t-48.5 -60t-12.5 -95.5q-4 -50 13.5 -88.5 t52 -59.5t79.5 -21t76.5 19t49.5 51l106 -52q-16 -39 -50 -69t-80.5 -47t-102.5 -17zM238 -227v137h137v-137h-137z"></glyph>
      <glyph glyph-name="uni1EBA" unicode="Ẻ" d="M72 0v745h495v-120h-359v-191h339v-120h-339v-194h359v-120h-495zM329 802l-57 65q28 14 39 28t11 32q0 19 -15 30t-42 11q-12 0 -25 -1.5t-25 -7.5l-15 83q17 9 40 13t48 4q68 0 109.5 -33t41.5 -87q0 -41 -29.5 -76.5t-80.5 -60.5z"></glyph>
      <glyph glyph-name="uni1EBB" unicode="ẻ" d="M319 -12q-84 0 -147 38t-98 103t-35 144q0 82 35.5 145.5t97 100.5t137.5 37q64 0 112.5 -21t82.5 -58t52 -84.5t18 -102.5q0 -14 -1.5 -29t-5.5 -26h-420v100h346l-62 -47q9 46 -4.5 82t-44 57t-73.5 21q-41 0 -73 -20.5t-48.5 -60t-12.5 -95.5q-4 -50 13.5 -88.5 t52 -59.5t79.5 -21t76.5 19t49.5 51l106 -52q-16 -39 -50 -69t-80.5 -47t-102.5 -17zM316 600l-57 65q28 14 39 28t11 32q0 19 -15 30t-42 11q-12 0 -25 -1.5t-25 -7.5l-15 83q17 9 40 13t48 4q68 0 109.5 -33t41.5 -87q0 -41 -29.5 -76.5t-80.5 -60.5z"></glyph>
      <glyph glyph-name="uni1EBC" unicode="Ẽ" d="M72 0v745h495v-120h-359v-191h339v-120h-339v-194h359v-120h-495zM392 842q-27 0 -45.5 8.5t-31.5 19t-26 19t-30 8.5t-26 -12.5t-9 -38.5h-101q0 80 36 117.5t87 37.5q28 0 47 -8t33 -19t26.5 -19t27.5 -8q20 0 28 13.5t8 36.5h101q-1 -76 -37 -115.5t-88 -39.5z"></glyph>
      <glyph glyph-name="uni1EBD" unicode="ẽ" d="M319 -12q-84 0 -147 38t-98 103t-35 144q0 82 35.5 145.5t97 100.5t137.5 37q64 0 112.5 -21t82.5 -58t52 -84.5t18 -102.5q0 -14 -1.5 -29t-5.5 -26h-420v100h346l-62 -47q9 46 -4.5 82t-44 57t-73.5 21q-41 0 -73 -20.5t-48.5 -60t-12.5 -95.5q-4 -50 13.5 -88.5 t52 -59.5t79.5 -21t76.5 19t49.5 51l106 -52q-16 -39 -50 -69t-80.5 -47t-102.5 -17zM379 640q-27 0 -45.5 8.5t-31.5 19t-26 19t-30 8.5t-26 -12.5t-9 -38.5h-101q0 80 36 117.5t87 37.5q28 0 47 -8t33 -19t26.5 -19t27.5 -8q20 0 28 13.5t8 36.5h101q-1 -76 -37 -115.5 t-88 -39.5z"></glyph>
      <glyph glyph-name="uni1EBE" unicode="Ế" d="M72 0v745h495v-120h-359v-191h339v-120h-339v-194h359v-120h-495zM125 842l117 155h155l118 -155h-130l-65 80l-65 -80h-130zM472 920l46 145h148l-87 -145h-107z"></glyph>
      <glyph glyph-name="uni1EBF" unicode="ế" d="M319 -12q-84 0 -147 38t-98 103t-35 144q0 82 35.5 145.5t97 100.5t137.5 37q64 0 112.5 -21t82.5 -58t52 -84.5t18 -102.5q0 -14 -1.5 -29t-5.5 -26h-420v100h346l-62 -47q9 46 -4.5 82t-44 57t-73.5 21q-41 0 -73 -20.5t-48.5 -60t-12.5 -95.5q-4 -50 13.5 -88.5 t52 -59.5t79.5 -21t76.5 19t49.5 51l106 -52q-16 -39 -50 -69t-80.5 -47t-102.5 -17zM112 640l117 155h155l118 -155h-130l-65 80l-65 -80h-130zM459 718l46 145h148l-87 -145h-107z"></glyph>
      <glyph glyph-name="uni1EC0" unicode="Ề" d="M72 0v745h495v-120h-359v-191h339v-120h-339v-194h359v-120h-495zM125 842l117 155h155l118 -155h-130l-65 80l-65 -80h-130zM528 920l-86 145h148l45 -145h-107z"></glyph>
      <glyph glyph-name="uni1EC1" unicode="ề" d="M319 -12q-84 0 -147 38t-98 103t-35 144q0 82 35.5 145.5t97 100.5t137.5 37q64 0 112.5 -21t82.5 -58t52 -84.5t18 -102.5q0 -14 -1.5 -29t-5.5 -26h-420v100h346l-62 -47q9 46 -4.5 82t-44 57t-73.5 21q-41 0 -73 -20.5t-48.5 -60t-12.5 -95.5q-4 -50 13.5 -88.5 t52 -59.5t79.5 -21t76.5 19t49.5 51l106 -52q-16 -39 -50 -69t-80.5 -47t-102.5 -17zM112 640l117 155h155l118 -155h-130l-65 80l-65 -80h-130zM515 718l-86 145h148l45 -145h-107z"></glyph>
      <glyph glyph-name="uni1EC2" unicode="Ể" d="M72 0v745h495v-120h-359v-191h339v-120h-339v-194h359v-120h-495zM125 842l117 155h155l118 -155h-130l-65 80l-65 -80h-130zM513 911l-52 61q27 13 37 25.5t10 29.5t-14 28t-39 11q-11 0 -23.5 -1.5t-23.5 -7.5l-14 77q17 8 37.5 12t44.5 4q63 0 101.5 -30.5t38.5 -81.5 q0 -38 -28 -71t-75 -56z"></glyph>
      <glyph glyph-name="uni1EC3" unicode="ể" d="M319 -12q-84 0 -147 38t-98 103t-35 144q0 82 35.5 145.5t97 100.5t137.5 37q64 0 112.5 -21t82.5 -58t52 -84.5t18 -102.5q0 -14 -1.5 -29t-5.5 -26h-420v100h346l-62 -47q9 46 -4.5 82t-44 57t-73.5 21q-41 0 -73 -20.5t-48.5 -60t-12.5 -95.5q-4 -50 13.5 -88.5 t52 -59.5t79.5 -21t76.5 19t49.5 51l106 -52q-16 -39 -50 -69t-80.5 -47t-102.5 -17zM112 640l117 155h155l118 -155h-130l-65 80l-65 -80h-130zM500 709l-52 61q27 13 37 25.5t10 29.5t-14 28t-39 11q-11 0 -23.5 -1.5t-23.5 -7.5l-14 77q17 8 37.5 12t44.5 4 q63 0 101.5 -30.5t38.5 -81.5q0 -38 -28 -71t-75 -56z"></glyph>
      <glyph glyph-name="uni1EC4" unicode="Ễ" d="M72 0v745h495v-120h-359v-191h339v-120h-339v-194h359v-120h-495zM125 842l117 155h155l118 -155h-130l-65 80l-65 -80h-130zM383 1058q-23 0 -38.5 8.5t-27 19t-22 19t-24.5 8.5t-20.5 -13t-6.5 -38h-99q0 53 15.5 87.5t40.5 51t54 16.5q24 0 40 -8t28 -19t22.5 -19 t23.5 -8q15 0 20.5 13.5t5.5 36.5h100q-1 -77 -34.5 -116t-77.5 -39z"></glyph>
      <glyph glyph-name="uni1EC5" unicode="ễ" d="M319 -12q-84 0 -147 38t-98 103t-35 144q0 82 35.5 145.5t97 100.5t137.5 37q64 0 112.5 -21t82.5 -58t52 -84.5t18 -102.5q0 -14 -1.5 -29t-5.5 -26h-420v100h346l-62 -47q9 46 -4.5 82t-44 57t-73.5 21q-41 0 -73 -20.5t-48.5 -60t-12.5 -95.5q-4 -50 13.5 -88.5 t52 -59.5t79.5 -21t76.5 19t49.5 51l106 -52q-16 -39 -50 -69t-80.5 -47t-102.5 -17zM112 640l117 155h155l118 -155h-130l-65 80l-65 -80h-130zM370 856q-23 0 -38.5 8.5t-27 19t-22 19t-24.5 8.5t-20.5 -13t-6.5 -38h-99q0 53 15.5 87.5t40.5 51t54 16.5q24 0 40 -8 t28 -19t22.5 -19t23.5 -8q15 0 20.5 13.5t5.5 36.5h100q-1 -77 -34.5 -116t-77.5 -39z"></glyph>
      <glyph glyph-name="uni1EC6" unicode="Ệ" d="M72 0v745h495v-120h-359v-191h339v-120h-339v-194h359v-120h-495zM252 -227v137h137v-137h-137zM125 842l117 165h155l118 -165h-130l-65 90l-65 -90h-130z"></glyph>
      <glyph glyph-name="uni1EC7" unicode="ệ" d="M319 -12q-84 0 -147 38t-98 103t-35 144q0 82 35.5 145.5t97 100.5t137.5 37q64 0 112.5 -21t82.5 -58t52 -84.5t18 -102.5q0 -14 -1.5 -29t-5.5 -26h-420v100h346l-62 -47q9 46 -4.5 82t-44 57t-73.5 21q-41 0 -73 -20.5t-48.5 -60t-12.5 -95.5q-4 -50 13.5 -88.5 t52 -59.5t79.5 -21t76.5 19t49.5 51l106 -52q-16 -39 -50 -69t-80.5 -47t-102.5 -17zM238 -227v137h137v-137h-137zM112 640l117 165h155l118 -165h-130l-65 90l-65 -90h-130z"></glyph>
      <glyph glyph-name="uni1EC8" unicode="Ỉ" d="M72 0v745h136v-745h-136zM150 802l-57 65q28 14 39 28t11 32q0 19 -15 30t-42 11q-12 0 -25 -1.5t-25 -7.5l-15 83q17 9 40 13t48 4q68 0 109.5 -33t41.5 -87q0 -41 -29.5 -76.5t-80.5 -60.5z"></glyph>
      <glyph glyph-name="uni1EC9" unicode="ỉ" d="M49 0v544h131v-544h-131zM124 600l-57 65q28 14 39 28t11 32q0 19 -15 30t-42 11q-12 0 -25 -1.5t-25 -7.5l-15 83q17 9 40 13t48 4q68 0 109.5 -33t41.5 -87q0 -41 -29.5 -76.5t-80.5 -60.5z"></glyph>
      <glyph glyph-name="uni1ECA" unicode="Ị" d="M72 0v745h136v-745h-136zM72 -227v137h137v-137h-137z"></glyph>
      <glyph glyph-name="uni1ECB" unicode="ị" d="M61 0v544h131v-544h-131zM61 605v140h131v-140h-131zM58 -227v137h137v-137h-137z"></glyph>
      <glyph glyph-name="uni1ECC" unicode="Ọ" d="M439 -12q-82 0 -153 29t-124 81t-82.5 122.5t-29.5 152.5q0 83 29 153t82 122t124 80.5t154 28.5t154 -29t124 -80.5t82.5 -121.5t29.5 -153q0 -82 -30 -152.5t-83 -122.5t-123.5 -81t-153.5 -29zM439 112q55 0 101 19.5t80.5 54.5t53 83t18.5 104t-18.5 103.5t-53 83 t-80.5 54.5t-101 19q-54 0 -100 -19t-80.5 -54.5t-53.5 -83t-19 -103.5t19 -104t53.5 -83t80.5 -54.5t100 -19.5zM371 -227v137h137v-137h-137z"></glyph>
      <glyph glyph-name="uni1ECD" unicode="ọ" d="M327 -12q-80 0 -145.5 37t-104 101t-38.5 146t38.5 146t103.5 101t146 37q80 0 145 -37t103.5 -100.5t38.5 -146.5q0 -82 -39 -146t-104 -101t-144 -37zM327 108q44 0 77.5 21t53 58.5t19.5 84.5q0 48 -19.5 84.5t-53 58t-77.5 21.5q-45 0 -79 -21.5t-53.5 -58 t-19.5 -84.5q0 -47 19.5 -84.5t53.5 -58.5t79 -21zM258 -227v137h137v-137h-137z"></glyph>
      <glyph glyph-name="uni1ECE" unicode="Ỏ" d="M439 -12q-82 0 -153 29t-124 81t-82.5 122.5t-29.5 152.5q0 83 29 153t82 122t124 80.5t154 28.5t154 -29t124 -80.5t82.5 -121.5t29.5 -153q0 -82 -30 -152.5t-83 -122.5t-123.5 -81t-153.5 -29zM439 112q55 0 101 19.5t80.5 54.5t53 83t18.5 104t-18.5 103.5t-53 83 t-80.5 54.5t-101 19q-54 0 -100 -19t-80.5 -54.5t-53.5 -83t-19 -103.5t19 -104t53.5 -83t80.5 -54.5t100 -19.5zM449 802l-57 65q28 14 39 28t11 32q0 19 -15 30t-42 11q-12 0 -25 -1.5t-25 -7.5l-15 83q17 9 40 13t48 4q68 0 109.5 -33t41.5 -87q0 -41 -29.5 -76.5 t-80.5 -60.5z"></glyph>
      <glyph glyph-name="uni1ECF" unicode="ỏ" d="M327 -12q-80 0 -145.5 37t-104 101t-38.5 146t38.5 146t103.5 101t146 37q80 0 145 -37t103.5 -100.5t38.5 -146.5q0 -82 -39 -146t-104 -101t-144 -37zM327 108q44 0 77.5 21t53 58.5t19.5 84.5q0 48 -19.5 84.5t-53 58t-77.5 21.5q-45 0 -79 -21.5t-53.5 -58 t-19.5 -84.5q0 -47 19.5 -84.5t53.5 -58.5t79 -21zM336 600l-57 65q28 14 39 28t11 32q0 19 -15 30t-42 11q-12 0 -25 -1.5t-25 -7.5l-15 83q17 9 40 13t48 4q68 0 109.5 -33t41.5 -87q0 -41 -29.5 -76.5t-80.5 -60.5z"></glyph>
      <glyph glyph-name="uni1ED0" unicode="Ố" d="M439 -12q-82 0 -153 29t-124 81t-82.5 122.5t-29.5 152.5q0 83 29 153t82 122t124 80.5t154 28.5t154 -29t124 -80.5t82.5 -121.5t29.5 -153q0 -82 -30 -152.5t-83 -122.5t-123.5 -81t-153.5 -29zM439 112q55 0 101 19.5t80.5 54.5t53 83t18.5 104t-18.5 103.5t-53 83 t-80.5 54.5t-101 19q-54 0 -100 -19t-80.5 -54.5t-53.5 -83t-19 -103.5t19 -104t53.5 -83t80.5 -54.5t100 -19.5zM245 842l117 155h155l118 -155h-130l-65 80l-65 -80h-130zM592 920l46 145h148l-87 -145h-107z"></glyph>
      <glyph glyph-name="uni1ED1" unicode="ố" d="M327 -12q-80 0 -145.5 37t-104 101t-38.5 146t38.5 146t103.5 101t146 37q80 0 145 -37t103.5 -100.5t38.5 -146.5q0 -82 -39 -146t-104 -101t-144 -37zM327 108q44 0 77.5 21t53 58.5t19.5 84.5q0 48 -19.5 84.5t-53 58t-77.5 21.5q-45 0 -79 -21.5t-53.5 -58 t-19.5 -84.5q0 -47 19.5 -84.5t53.5 -58.5t79 -21zM132 640l117 155h155l118 -155h-130l-65 80l-65 -80h-130zM479 718l46 145h148l-87 -145h-107z"></glyph>
      <glyph glyph-name="uni1ED2" unicode="Ồ" d="M439 -12q-82 0 -153 29t-124 81t-82.5 122.5t-29.5 152.5q0 83 29 153t82 122t124 80.5t154 28.5t154 -29t124 -80.5t82.5 -121.5t29.5 -153q0 -82 -30 -152.5t-83 -122.5t-123.5 -81t-153.5 -29zM439 112q55 0 101 19.5t80.5 54.5t53 83t18.5 104t-18.5 103.5t-53 83 t-80.5 54.5t-101 19q-54 0 -100 -19t-80.5 -54.5t-53.5 -83t-19 -103.5t19 -104t53.5 -83t80.5 -54.5t100 -19.5zM245 842l117 155h155l118 -155h-130l-65 80l-65 -80h-130zM648 920l-86 145h148l45 -145h-107z"></glyph>
      <glyph glyph-name="uni1ED3" unicode="ồ" d="M327 -12q-80 0 -145.5 37t-104 101t-38.5 146t38.5 146t103.5 101t146 37q80 0 145 -37t103.5 -100.5t38.5 -146.5q0 -82 -39 -146t-104 -101t-144 -37zM327 108q44 0 77.5 21t53 58.5t19.5 84.5q0 48 -19.5 84.5t-53 58t-77.5 21.5q-45 0 -79 -21.5t-53.5 -58 t-19.5 -84.5q0 -47 19.5 -84.5t53.5 -58.5t79 -21zM132 640l117 155h155l118 -155h-130l-65 80l-65 -80h-130zM535 718l-86 145h148l45 -145h-107z"></glyph>
      <glyph glyph-name="uni1ED4" unicode="Ổ" d="M439 -12q-82 0 -153 29t-124 81t-82.5 122.5t-29.5 152.5q0 83 29 153t82 122t124 80.5t154 28.5t154 -29t124 -80.5t82.5 -121.5t29.5 -153q0 -82 -30 -152.5t-83 -122.5t-123.5 -81t-153.5 -29zM439 112q55 0 101 19.5t80.5 54.5t53 83t18.5 104t-18.5 103.5t-53 83 t-80.5 54.5t-101 19q-54 0 -100 -19t-80.5 -54.5t-53.5 -83t-19 -103.5t19 -104t53.5 -83t80.5 -54.5t100 -19.5zM245 842l117 155h155l118 -155h-130l-65 80l-65 -80h-130zM633 911l-52 61q27 13 37 25.5t10 29.5t-14 28t-39 11q-11 0 -23.5 -1.5t-23.5 -7.5l-14 77 q17 8 37.5 12t44.5 4q63 0 101.5 -30.5t38.5 -81.5q0 -38 -28 -71t-75 -56z"></glyph>
      <glyph glyph-name="uni1ED5" unicode="ổ" d="M327 -12q-80 0 -145.5 37t-104 101t-38.5 146t38.5 146t103.5 101t146 37q80 0 145 -37t103.5 -100.5t38.5 -146.5q0 -82 -39 -146t-104 -101t-144 -37zM327 108q44 0 77.5 21t53 58.5t19.5 84.5q0 48 -19.5 84.5t-53 58t-77.5 21.5q-45 0 -79 -21.5t-53.5 -58 t-19.5 -84.5q0 -47 19.5 -84.5t53.5 -58.5t79 -21zM132 640l117 155h155l118 -155h-130l-65 80l-65 -80h-130zM520 709l-52 61q27 13 37 25.5t10 29.5t-14 28t-39 11q-11 0 -23.5 -1.5t-23.5 -7.5l-14 77q17 8 37.5 12t44.5 4q63 0 101.5 -30.5t38.5 -81.5q0 -38 -28 -71 t-75 -56z"></glyph>
      <glyph glyph-name="uni1ED6" unicode="Ỗ" d="M439 -12q-82 0 -153 29t-124 81t-82.5 122.5t-29.5 152.5q0 83 29 153t82 122t124 80.5t154 28.5t154 -29t124 -80.5t82.5 -121.5t29.5 -153q0 -82 -30 -152.5t-83 -122.5t-123.5 -81t-153.5 -29zM439 112q55 0 101 19.5t80.5 54.5t53 83t18.5 104t-18.5 103.5t-53 83 t-80.5 54.5t-101 19q-54 0 -100 -19t-80.5 -54.5t-53.5 -83t-19 -103.5t19 -104t53.5 -83t80.5 -54.5t100 -19.5zM244 842l117 155h155l118 -155h-130l-65 80l-65 -80h-130zM502 1058q-23 0 -38.5 8.5t-27 19t-22 19t-24.5 8.5t-20.5 -13t-6.5 -38h-99q0 53 15.5 87.5 t40.5 51t54 16.5q24 0 40 -8t28 -19t22.5 -19t23.5 -8q15 0 20.5 13.5t5.5 36.5h100q-1 -77 -34.5 -116t-77.5 -39z"></glyph>
      <glyph glyph-name="uni1ED7" unicode="ỗ" d="M327 -12q-80 0 -145.5 37t-104 101t-38.5 146t38.5 146t103.5 101t146 37q80 0 145 -37t103.5 -100.5t38.5 -146.5q0 -82 -39 -146t-104 -101t-144 -37zM327 108q44 0 77.5 21t53 58.5t19.5 84.5q0 48 -19.5 84.5t-53 58t-77.5 21.5q-45 0 -79 -21.5t-53.5 -58 t-19.5 -84.5q0 -47 19.5 -84.5t53.5 -58.5t79 -21zM132 640l117 155h155l118 -155h-130l-65 80l-65 -80h-130zM390 856q-23 0 -38.5 8.5t-27 19t-22 19t-24.5 8.5t-20.5 -13t-6.5 -38h-99q0 53 15.5 87.5t40.5 51t54 16.5q24 0 40 -8t28 -19t22.5 -19t23.5 -8 q15 0 20.5 13.5t5.5 36.5h100q-1 -77 -34.5 -116t-77.5 -39z"></glyph>
      <glyph glyph-name="uni1ED8" unicode="Ộ" d="M439 -12q-82 0 -153 29t-124 81t-82.5 122.5t-29.5 152.5q0 83 29 153t82 122t124 80.5t154 28.5t154 -29t124 -80.5t82.5 -121.5t29.5 -153q0 -82 -30 -152.5t-83 -122.5t-123.5 -81t-153.5 -29zM439 112q55 0 101 19.5t80.5 54.5t53 83t18.5 104t-18.5 103.5t-53 83 t-80.5 54.5t-101 19q-54 0 -100 -19t-80.5 -54.5t-53.5 -83t-19 -103.5t19 -104t53.5 -83t80.5 -54.5t100 -19.5zM371 -227v137h137v-137h-137zM245 842l117 165h155l118 -165h-130l-65 90l-65 -90h-130z"></glyph>
      <glyph glyph-name="uni1ED9" unicode="ộ" d="M327 -12q-80 0 -145.5 37t-104 101t-38.5 146t38.5 146t103.5 101t146 37q80 0 145 -37t103.5 -100.5t38.5 -146.5q0 -82 -39 -146t-104 -101t-144 -37zM327 108q44 0 77.5 21t53 58.5t19.5 84.5q0 48 -19.5 84.5t-53 58t-77.5 21.5q-45 0 -79 -21.5t-53.5 -58 t-19.5 -84.5q0 -47 19.5 -84.5t53.5 -58.5t79 -21zM258 -227v137h137v-137h-137zM132 640l117 165h155l118 -165h-130l-65 90l-65 -90h-130z"></glyph>
      <glyph glyph-name="uni1EDA" unicode="Ớ" d="M439 -12q-82 0 -153 29t-124 81t-82.5 122.5t-29.5 152.5q0 83 29 153t82 122t124 80.5t154 28.5h203q8 0 19 2t20 12.5t9 35.5q0 17 -6 37.5t-15 39.5h118q10 -21 16.5 -41.5t6.5 -47.5q0 -69 -26 -100t-68 -31h-76l29 24q49 -34 85 -82.5t55.5 -107t19.5 -125.5 q0 -82 -30 -152.5t-83 -122.5t-123.5 -81t-153.5 -29zM439 112q55 0 101 19.5t80.5 54.5t53 83t18.5 104t-18.5 103.5t-53 83t-80.5 54.5t-101 19q-54 0 -100 -19t-80.5 -54.5t-53.5 -83t-19 -103.5t19 -104t53.5 -83t80.5 -54.5t100 -19.5zM375 842l65 173h170l-106 -173 h-129z"></glyph>
      <glyph glyph-name="uni1EDB" unicode="ớ" d="M327 -12q-80 0 -145.5 37t-104 101t-38.5 146t38.5 146t103.5 101t146 37h106q8 0 19.5 2t20 12.5t8.5 35.5q0 17 -6 37t-15 40h113q10 -21 16.5 -41.5t6.5 -47.5q0 -57 -29 -88t-76 -41l9 36q51 -37 82.5 -96t31.5 -133q0 -82 -39 -146t-104 -101t-144 -37zM327 108 q44 0 77.5 21t53 58.5t19.5 84.5q0 48 -19.5 84.5t-53 58t-77.5 21.5q-45 0 -79 -21.5t-53.5 -58t-19.5 -84.5q0 -47 19.5 -84.5t53.5 -58.5t79 -21zM262 640l65 173h170l-106 -173h-129z"></glyph>
      <glyph glyph-name="uni1EDC" unicode="Ờ" d="M439 -12q-82 0 -153 29t-124 81t-82.5 122.5t-29.5 152.5q0 83 29 153t82 122t124 80.5t154 28.5h203q8 0 19 2t20 12.5t9 35.5q0 17 -6 37.5t-15 39.5h118q10 -21 16.5 -41.5t6.5 -47.5q0 -69 -26 -100t-68 -31h-76l29 24q49 -34 85 -82.5t55.5 -107t19.5 -125.5 q0 -82 -30 -152.5t-83 -122.5t-123.5 -81t-153.5 -29zM439 112q55 0 101 19.5t80.5 54.5t53 83t18.5 104t-18.5 103.5t-53 83t-80.5 54.5t-101 19q-54 0 -100 -19t-80.5 -54.5t-53.5 -83t-19 -103.5t19 -104t53.5 -83t80.5 -54.5t100 -19.5zM375 842l-106 173h170l65 -173 h-129z"></glyph>
      <glyph glyph-name="uni1EDD" unicode="ờ" d="M327 -12q-80 0 -145.5 37t-104 101t-38.5 146t38.5 146t103.5 101t146 37h106q8 0 19.5 2t20 12.5t8.5 35.5q0 17 -6 37t-15 40h113q10 -21 16.5 -41.5t6.5 -47.5q0 -57 -29 -88t-76 -41l9 36q51 -37 82.5 -96t31.5 -133q0 -82 -39 -146t-104 -101t-144 -37zM327 108 q44 0 77.5 21t53 58.5t19.5 84.5q0 48 -19.5 84.5t-53 58t-77.5 21.5q-45 0 -79 -21.5t-53.5 -58t-19.5 -84.5q0 -47 19.5 -84.5t53.5 -58.5t79 -21zM262 640l-106 173h170l65 -173h-129z"></glyph>
      <glyph glyph-name="uni1EDE" unicode="Ở" d="M439 -12q-82 0 -153 29t-124 81t-82.5 122.5t-29.5 152.5q0 83 29 153t82 122t124 80.5t154 28.5h203q8 0 19 2t20 12.5t9 35.5q0 17 -6 37.5t-15 39.5h118q10 -21 16.5 -41.5t6.5 -47.5q0 -69 -26 -100t-68 -31h-76l29 24q49 -34 85 -82.5t55.5 -107t19.5 -125.5 q0 -82 -30 -152.5t-83 -122.5t-123.5 -81t-153.5 -29zM439 112q55 0 101 19.5t80.5 54.5t53 83t18.5 104t-18.5 103.5t-53 83t-80.5 54.5t-101 19q-54 0 -100 -19t-80.5 -54.5t-53.5 -83t-19 -103.5t19 -104t53.5 -83t80.5 -54.5t100 -19.5zM449 802l-57 65q28 14 39 28 t11 32q0 19 -15 30t-42 11q-12 0 -25 -1.5t-25 -7.5l-15 83q17 9 40 13t48 4q68 0 109.5 -33t41.5 -87q0 -41 -29.5 -76.5t-80.5 -60.5z"></glyph>
      <glyph glyph-name="uni1EDF" unicode="ở" d="M327 -12q-80 0 -145.5 37t-104 101t-38.5 146t38.5 146t103.5 101t146 37h106q8 0 19.5 2t20 12.5t8.5 35.5q0 17 -6 37t-15 40h113q10 -21 16.5 -41.5t6.5 -47.5q0 -57 -29 -88t-76 -41l9 36q51 -37 82.5 -96t31.5 -133q0 -82 -39 -146t-104 -101t-144 -37zM327 108 q44 0 77.5 21t53 58.5t19.5 84.5q0 48 -19.5 84.5t-53 58t-77.5 21.5q-45 0 -79 -21.5t-53.5 -58t-19.5 -84.5q0 -47 19.5 -84.5t53.5 -58.5t79 -21zM336 600l-57 65q28 14 39 28t11 32q0 19 -15 30t-42 11q-12 0 -25 -1.5t-25 -7.5l-15 83q17 9 40 13t48 4q68 0 109.5 -33 t41.5 -87q0 -41 -29.5 -76.5t-80.5 -60.5z"></glyph>
      <glyph glyph-name="uni1EE0" unicode="Ỡ" d="M439 -12q-82 0 -153 29t-124 81t-82.5 122.5t-29.5 152.5q0 83 29 153t82 122t124 80.5t154 28.5h203q8 0 19 2t20 12.5t9 35.5q0 17 -6 37.5t-15 39.5h118q10 -21 16.5 -41.5t6.5 -47.5q0 -69 -26 -100t-68 -31h-76l29 24q49 -34 85 -82.5t55.5 -107t19.5 -125.5 q0 -82 -30 -152.5t-83 -122.5t-123.5 -81t-153.5 -29zM439 112q55 0 101 19.5t80.5 54.5t53 83t18.5 104t-18.5 103.5t-53 83t-80.5 54.5t-101 19q-54 0 -100 -19t-80.5 -54.5t-53.5 -83t-19 -103.5t19 -104t53.5 -83t80.5 -54.5t100 -19.5zM511 842q-27 0 -45.5 8.5 t-31.5 19t-26 19t-30 8.5t-26 -12.5t-9 -38.5h-101q0 80 36 117.5t87 37.5q28 0 47 -8t33 -19t26.5 -19t27.5 -8q20 0 28 13.5t8 36.5h101q-1 -76 -37 -115.5t-88 -39.5z"></glyph>
      <glyph glyph-name="uni1EE1" unicode="ỡ" d="M327 -12q-80 0 -145.5 37t-104 101t-38.5 146t38.5 146t103.5 101t146 37h106q8 0 19.5 2t20 12.5t8.5 35.5q0 17 -6 37t-15 40h113q10 -21 16.5 -41.5t6.5 -47.5q0 -57 -29 -88t-76 -41l9 36q51 -37 82.5 -96t31.5 -133q0 -82 -39 -146t-104 -101t-144 -37zM327 108 q44 0 77.5 21t53 58.5t19.5 84.5q0 48 -19.5 84.5t-53 58t-77.5 21.5q-45 0 -79 -21.5t-53.5 -58t-19.5 -84.5q0 -47 19.5 -84.5t53.5 -58.5t79 -21zM399 640q-27 0 -45.5 8.5t-31.5 19t-26 19t-30 8.5t-26 -12.5t-9 -38.5h-101q0 80 36 117.5t87 37.5q28 0 47 -8t33 -19 t26.5 -19t27.5 -8q20 0 28 13.5t8 36.5h101q-1 -76 -37 -115.5t-88 -39.5z"></glyph>
      <glyph glyph-name="uni1EE2" unicode="Ợ" d="M439 -12q-82 0 -153 29t-124 81t-82.5 122.5t-29.5 152.5q0 83 29 153t82 122t124 80.5t154 28.5h203q8 0 19 2t20 12.5t9 35.5q0 17 -6 37.5t-15 39.5h118q10 -21 16.5 -41.5t6.5 -47.5q0 -69 -26 -100t-68 -31h-76l29 24q49 -34 85 -82.5t55.5 -107t19.5 -125.5 q0 -82 -30 -152.5t-83 -122.5t-123.5 -81t-153.5 -29zM439 112q55 0 101 19.5t80.5 54.5t53 83t18.5 104t-18.5 103.5t-53 83t-80.5 54.5t-101 19q-54 0 -100 -19t-80.5 -54.5t-53.5 -83t-19 -103.5t19 -104t53.5 -83t80.5 -54.5t100 -19.5zM371 -227v137h137v-137h-137z "></glyph>
      <glyph glyph-name="uni1EE3" unicode="ợ" d="M327 -12q-80 0 -145.5 37t-104 101t-38.5 146t38.5 146t103.5 101t146 37h106q8 0 19.5 2t20 12.5t8.5 35.5q0 17 -6 37t-15 40h113q10 -21 16.5 -41.5t6.5 -47.5q0 -57 -29 -88t-76 -41l9 36q51 -37 82.5 -96t31.5 -133q0 -82 -39 -146t-104 -101t-144 -37zM327 108 q44 0 77.5 21t53 58.5t19.5 84.5q0 48 -19.5 84.5t-53 58t-77.5 21.5q-45 0 -79 -21.5t-53.5 -58t-19.5 -84.5q0 -47 19.5 -84.5t53.5 -58.5t79 -21zM258 -227v137h137v-137h-137z"></glyph>
      <glyph glyph-name="uni1EE4" unicode="Ụ" d="M359 -12q-86 0 -152.5 36t-104.5 99t-38 143v479h136v-472q0 -46 20.5 -83t56.5 -57.5t82 -20.5q47 0 82.5 20.5t56 57.5t20.5 83v472h136v-479q0 -80 -38 -143t-104.5 -99t-152.5 -36zM291 -227v137h137v-137h-137z"></glyph>
      <glyph glyph-name="uni1EE5" unicode="ụ" d="M255 -12q-63 0 -109.5 28t-71 78t-24.5 117v333h131v-322q0 -34 13.5 -59.5t39 -40t57.5 -14.5t57 14.5t39 40.5t14 62v319h131v-544h-124v107l11 -19q-19 -50 -62.5 -75t-101.5 -25zM229 -227v137h137v-137h-137z"></glyph>
      <glyph glyph-name="uni1EE6" unicode="Ủ" d="M359 -12q-86 0 -152.5 36t-104.5 99t-38 143v479h136v-472q0 -46 20.5 -83t56.5 -57.5t82 -20.5q47 0 82.5 20.5t56 57.5t20.5 83v472h136v-479q0 -80 -38 -143t-104.5 -99t-152.5 -36zM369 802l-57 65q28 14 39 28t11 32q0 19 -15 30t-42 11q-12 0 -25 -1.5t-25 -7.5 l-15 83q17 9 40 13t48 4q68 0 109.5 -33t41.5 -87q0 -41 -29.5 -76.5t-80.5 -60.5z"></glyph>
      <glyph glyph-name="uni1EE7" unicode="ủ" d="M255 -12q-63 0 -109.5 28t-71 78t-24.5 117v333h131v-322q0 -34 13.5 -59.5t39 -40t57.5 -14.5t57 14.5t39 40.5t14 62v319h131v-544h-124v107l11 -19q-19 -50 -62.5 -75t-101.5 -25zM306 600l-57 65q28 14 39 28t11 32q0 19 -15 30t-42 11q-12 0 -25 -1.5t-25 -7.5 l-15 83q17 9 40 13t48 4q68 0 109.5 -33t41.5 -87q0 -41 -29.5 -76.5t-80.5 -60.5z"></glyph>
      <glyph glyph-name="uni1EE8" unicode="Ứ" d="M359 -12q-86 0 -152.5 36t-104.5 99t-38 143v479h136v-472q0 -46 20.5 -83t56.5 -57.5t82 -20.5q47 0 82.5 20.5t56 57.5t20.5 83v472h120q13 0 28 8.5t15 41.5q0 17 -6.5 37.5t-14.5 39.5h117q11 -21 17.5 -41.5t6.5 -47.5q0 -69 -37 -101.5t-103 -32.5h-7v-383 q0 -80 -38 -143t-104.5 -99t-152.5 -36zM295 842l65 173h170l-106 -173h-129z"></glyph>
      <glyph glyph-name="uni1EE9" unicode="ứ" d="M255 -12q-63 0 -109.5 28t-71 78t-24.5 117v333h131v-322q0 -34 13.5 -59.5t39 -40t57.5 -14.5t57 14.5t39 40.5t14 62v319h93q13 0 27.5 8.5t14.5 41.5q0 17 -6 37t-14 40h113q10 -21 16.5 -41.5t6.5 -47.5q0 -73 -46.5 -104t-118.5 -26l45 58v-510h-124v66 q-21 -39 -61 -58.5t-92 -19.5zM232 640l65 173h170l-106 -173h-129z"></glyph>
      <glyph glyph-name="uni1EEA" unicode="Ừ" d="M359 -12q-86 0 -152.5 36t-104.5 99t-38 143v479h136v-472q0 -46 20.5 -83t56.5 -57.5t82 -20.5q47 0 82.5 20.5t56 57.5t20.5 83v472h120q13 0 28 8.5t15 41.5q0 17 -6.5 37.5t-14.5 39.5h117q11 -21 17.5 -41.5t6.5 -47.5q0 -69 -37 -101.5t-103 -32.5h-7v-383 q0 -80 -38 -143t-104.5 -99t-152.5 -36zM295 842l-106 173h170l65 -173h-129z"></glyph>
      <glyph glyph-name="uni1EEB" unicode="ừ" d="M255 -12q-63 0 -109.5 28t-71 78t-24.5 117v333h131v-322q0 -34 13.5 -59.5t39 -40t57.5 -14.5t57 14.5t39 40.5t14 62v319h93q13 0 27.5 8.5t14.5 41.5q0 17 -6 37t-14 40h113q10 -21 16.5 -41.5t6.5 -47.5q0 -73 -46.5 -104t-118.5 -26l45 58v-510h-124v66 q-21 -39 -61 -58.5t-92 -19.5zM233 640l-106 173h170l65 -173h-129z"></glyph>
      <glyph glyph-name="uni1EEC" unicode="Ử" d="M359 -12q-86 0 -152.5 36t-104.5 99t-38 143v479h136v-472q0 -46 20.5 -83t56.5 -57.5t82 -20.5q47 0 82.5 20.5t56 57.5t20.5 83v472h120q13 0 28 8.5t15 41.5q0 17 -6.5 37.5t-14.5 39.5h117q11 -21 17.5 -41.5t6.5 -47.5q0 -69 -37 -101.5t-103 -32.5h-7v-383 q0 -80 -38 -143t-104.5 -99t-152.5 -36zM369 802l-57 65q28 14 39 28t11 32q0 19 -15 30t-42 11q-12 0 -25 -1.5t-25 -7.5l-15 83q17 9 40 13t48 4q68 0 109.5 -33t41.5 -87q0 -41 -29.5 -76.5t-80.5 -60.5z"></glyph>
      <glyph glyph-name="uni1EED" unicode="ử" d="M255 -12q-63 0 -109.5 28t-71 78t-24.5 117v333h131v-322q0 -34 13.5 -59.5t39 -40t57.5 -14.5t57 14.5t39 40.5t14 62v319h93q13 0 27.5 8.5t14.5 41.5q0 17 -6 37t-14 40h113q10 -21 16.5 -41.5t6.5 -47.5q0 -73 -46.5 -104t-118.5 -26l45 58v-510h-124v66 q-21 -39 -61 -58.5t-92 -19.5zM306 600l-57 65q28 14 39 28t11 32q0 19 -15 30t-42 11q-12 0 -25 -1.5t-25 -7.5l-15 83q17 9 40 13t48 4q68 0 109.5 -33t41.5 -87q0 -41 -29.5 -76.5t-80.5 -60.5z"></glyph>
      <glyph glyph-name="uni1EEE" unicode="Ữ" d="M359 -12q-86 0 -152.5 36t-104.5 99t-38 143v479h136v-472q0 -46 20.5 -83t56.5 -57.5t82 -20.5q47 0 82.5 20.5t56 57.5t20.5 83v472h120q13 0 28 8.5t15 41.5q0 17 -6.5 37.5t-14.5 39.5h117q11 -21 17.5 -41.5t6.5 -47.5q0 -69 -37 -101.5t-103 -32.5h-7v-383 q0 -80 -38 -143t-104.5 -99t-152.5 -36zM431 842q-27 0 -45.5 8.5t-31.5 19t-26 19t-30 8.5t-26 -12.5t-9 -38.5h-101q0 80 36 117.5t87 37.5q28 0 47 -8t33 -19t26.5 -19t27.5 -8q20 0 28 13.5t8 36.5h101q-1 -76 -37 -115.5t-88 -39.5z"></glyph>
      <glyph glyph-name="uni1EEF" unicode="ữ" d="M255 -12q-63 0 -109.5 28t-71 78t-24.5 117v333h131v-322q0 -34 13.5 -59.5t39 -40t57.5 -14.5t57 14.5t39 40.5t14 62v319h93q13 0 27.5 8.5t14.5 41.5q0 17 -6 37t-14 40h113q10 -21 16.5 -41.5t6.5 -47.5q0 -73 -46.5 -104t-118.5 -26l45 58v-510h-124v66 q-21 -39 -61 -58.5t-92 -19.5zM369 640q-27 0 -45.5 8.5t-31.5 19t-26 19t-30 8.5t-26 -12.5t-9 -38.5h-101q0 80 36 117.5t87 37.5q28 0 47 -8t33 -19t26.5 -19t27.5 -8q20 0 28 13.5t8 36.5h101q-1 -76 -37 -115.5t-88 -39.5z"></glyph>
      <glyph glyph-name="uni1EF0" unicode="Ự" d="M359 -12q-86 0 -152.5 36t-104.5 99t-38 143v479h136v-472q0 -46 20.5 -83t56.5 -57.5t82 -20.5q47 0 82.5 20.5t56 57.5t20.5 83v472h120q13 0 28 8.5t15 41.5q0 17 -6.5 37.5t-14.5 39.5h117q11 -21 17.5 -41.5t6.5 -47.5q0 -69 -37 -101.5t-103 -32.5h-7v-383 q0 -80 -38 -143t-104.5 -99t-152.5 -36zM291 -227v137h137v-137h-137z"></glyph>
      <glyph glyph-name="uni1EF1" unicode="ự" d="M255 -12q-63 0 -109.5 28t-71 78t-24.5 117v333h131v-322q0 -34 13.5 -59.5t39 -40t57.5 -14.5t57 14.5t39 40.5t14 62v319h93q13 0 27.5 8.5t14.5 41.5q0 17 -6 37t-14 40h113q10 -21 16.5 -41.5t6.5 -47.5q0 -73 -46.5 -104t-118.5 -26l45 58v-510h-124v66 q-21 -39 -61 -58.5t-92 -19.5zM229 -227v137h137v-137h-137z"></glyph>
      <glyph glyph-name="Ygrave" unicode="Ỳ" d="M262 0v330l-251 415h155l192 -324h-55l191 324h155l-250 -414v-331h-137zM266 842l-106 173h170l65 -173h-129z"></glyph>
      <glyph glyph-name="ygrave" unicode="ỳ" d="M127 -220q-22 0 -43 3.5t-38 12.5v109q13 -3 31.5 -6t34.5 -3q45 0 65.5 20.5t36.5 54.5l36 84l-2 -110l-237 599h141l166 -442h-50l165 442h142l-237 -599q-21 -52 -51 -89t-69.5 -56.5t-90.5 -19.5zM229 640l-106 173h170l65 -173h-129z"></glyph>
      <glyph glyph-name="uni1EF4" unicode="Ỵ" d="M262 0v330l-251 415h155l192 -324h-55l191 324h155l-250 -414v-331h-137zM262 -227v137h137v-137h-137z"></glyph>
      <glyph glyph-name="uni1EF5" unicode="ỵ" d="M127 -220q-22 0 -43 3.5t-38 12.5v109q13 -3 31.5 -6t34.5 -3q45 0 65.5 20.5t36.5 54.5l36 84l-2 -110l-237 599h141l166 -442h-50l165 442h142l-237 -599q-21 -52 -51 -89t-69.5 -56.5t-90.5 -19.5zM467 -127v137h137v-137h-137z"></glyph>
      <glyph glyph-name="uni1EF6" unicode="Ỷ" d="M262 0v330l-251 415h155l192 -324h-55l191 324h155l-250 -414v-331h-137zM340 802l-57 65q28 14 39 28t11 32q0 19 -15 30t-42 11q-12 0 -25 -1.5t-25 -7.5l-15 83q17 9 40 13t48 4q68 0 109.5 -33t41.5 -87q0 -41 -29.5 -76.5t-80.5 -60.5z"></glyph>
      <glyph glyph-name="uni1EF7" unicode="ỷ" d="M127 -220q-22 0 -43 3.5t-38 12.5v109q13 -3 31.5 -6t34.5 -3q45 0 65.5 20.5t36.5 54.5l36 84l-2 -110l-237 599h141l166 -442h-50l165 442h142l-237 -599q-21 -52 -51 -89t-69.5 -56.5t-90.5 -19.5zM302 600l-57 65q28 14 39 28t11 32q0 19 -15 30t-42 11 q-12 0 -25 -1.5t-25 -7.5l-15 83q17 9 40 13t48 4q68 0 109.5 -33t41.5 -87q0 -41 -29.5 -76.5t-80.5 -60.5z"></glyph>
      <glyph glyph-name="uni1EF8" unicode="Ỹ" d="M262 0v330l-251 415h155l192 -324h-55l191 324h155l-250 -414v-331h-137zM402 842q-27 0 -45.5 8.5t-31.5 19t-26 19t-30 8.5t-26 -12.5t-9 -38.5h-101q0 80 36 117.5t87 37.5q28 0 47 -8t33 -19t26.5 -19t27.5 -8q20 0 28 13.5t8 36.5h101q-1 -76 -37 -115.5t-88 -39.5z "></glyph>
      <glyph glyph-name="uni1EF9" unicode="ỹ" d="M127 -220q-22 0 -43 3.5t-38 12.5v109q13 -3 31.5 -6t34.5 -3q45 0 65.5 20.5t36.5 54.5l36 84l-2 -110l-237 599h141l166 -442h-50l165 442h142l-237 -599q-21 -52 -51 -89t-69.5 -56.5t-90.5 -19.5zM365 640q-27 0 -45.5 8.5t-31.5 19t-26 19t-30 8.5t-26 -12.5 t-9 -38.5h-101q0 80 36 117.5t87 37.5q28 0 47 -8t33 -19t26.5 -19t27.5 -8q20 0 28 13.5t8 36.5h101q-1 -76 -37 -115.5t-88 -39.5z"></glyph>
      <glyph glyph-name="uni2002" unicode=" "></glyph>
      <glyph glyph-name="uni2003" unicode=" "></glyph>
      <glyph glyph-name="uni2007" unicode=" "></glyph>
      <glyph glyph-name="uni2008" unicode=" "></glyph>
      <glyph glyph-name="uni2009" unicode=" "></glyph>
      <glyph glyph-name="uni200A" unicode=" "></glyph>
      <glyph glyph-name="uni200B" unicode="​"></glyph>
      <glyph glyph-name="uni2010" unicode="‐" d="M111 214v115h425v-115h-425z"></glyph>
      <glyph glyph-name="figuredash" unicode="‒" d="M111 214v115h480v-115h-480z"></glyph>
      <glyph glyph-name="endash" unicode="–" d="M88 214v115h480v-115h-480z"></glyph>
      <glyph glyph-name="emdash" unicode="—" d="M88 214v115h810v-115h-810z"></glyph>
      <glyph glyph-name="uni2015" unicode="―" d="M111 214v115h810v-115h-810z"></glyph>
      <glyph glyph-name="quoteleft" unicode="‘" d="M103 471v86q0 81 38.5 132.5t113.5 67.5v-65q-34 -8 -54 -29.5t-26 -51.5h60v-140h-132z"></glyph>
      <glyph glyph-name="quoteright" unicode="’" d="M103 459v65q33 8 53.5 29.5t25.5 51.5h-59v140h132v-86q0 -81 -38.5 -132.5t-113.5 -67.5z"></glyph>
      <glyph glyph-name="quotesinglbase" unicode="‚" d="M103 -146v65q33 8 53.5 29.5t25.5 51.5h-59v140h132v-86q0 -81 -38.5 -132.5t-113.5 -67.5z"></glyph>
      <glyph glyph-name="quotedblleft" unicode="“" d="M305 471v86q0 81 38.5 132.5t114.5 67.5v-65q-34 -8 -54 -29.5t-26 -51.5h60v-140h-133zM103 471v86q0 81 38.5 132.5t113.5 67.5v-65q-34 -8 -54 -29.5t-26 -51.5h60v-140h-132z"></glyph>
      <glyph glyph-name="quotedblright" unicode="”" d="M305 459v65q34 8 54 29.5t26 51.5h-60v140h133v-86q0 -81 -38.5 -132.5t-114.5 -67.5zM103 459v65q33 8 53.5 29.5t25.5 51.5h-59v140h132v-86q0 -81 -38.5 -132.5t-113.5 -67.5z"></glyph>
      <glyph glyph-name="quotedblbase" unicode="„" d="M103 -146v65q33 8 53.5 29.5t25.5 51.5h-59v140h132v-86q0 -81 -38.5 -132.5t-113.5 -67.5zM305 -146v65q34 8 54 29.5t26 51.5h-60v140h133v-86q0 -81 -38.5 -132.5t-114.5 -67.5z"></glyph>
      <glyph glyph-name="dagger" unicode="†" d="M271 -190v604h-204v124h204v207h132v-207h204v-124h-204v-604h-132z"></glyph>
      <glyph glyph-name="daggerdbl" unicode="‡" d="M288 -190v207h-204v124h204v273h-204v124h204v207h133v-207h203v-124h-203v-273h203v-124h-203v-207h-133z"></glyph>
      <glyph glyph-name="bullet" unicode="•" d="M332 62q-59 0 -106.5 27t-75 75t-27.5 108q0 57 27 102.5t74 72.5t108 27q58 0 103 -27t72 -73t28 -102q0 -60 -27 -108t-72.5 -75t-103.5 -27z"></glyph>
      <glyph glyph-name="ellipsis" unicode="…" d="M123 0v140h132v-140h-132zM323 0v140h132v-140h-132zM523 0v140h132v-140h-132z"></glyph>
      <glyph glyph-name="perthousand" unicode="‰" d="M153 0l604 745h140l-604 -745h-140zM270 367q-56 0 -100.5 26.5t-70.5 70.5t-26 98t26 98.5t70.5 70.5t100.5 26q55 0 99 -26t70 -70.5t26 -98.5t-26 -98t-70 -70.5t-99 -26.5zM269 468q30 0 50 13.5t30.5 35t10.5 45.5q0 25 -10.5 46t-30.5 35t-50 14q-28 0 -48.5 -14 t-31.5 -35.5t-11 -45.5q0 -23 11 -45t31.5 -35.5t48.5 -13.5zM777 -12q-55 0 -99.5 26.5t-70.5 70.5t-26 98t26 98.5t70.5 70.5t99.5 26q56 0 100 -26t70 -70.5t26 -98.5t-26 -98t-70 -70.5t-100 -26.5zM777 89q29 0 49.5 13.5t31 35t10.5 45.5q0 25 -10.5 46t-31 35 t-49.5 14q-28 0 -48.5 -14t-31.5 -35.5t-11 -45.5q0 -23 11 -45t31.5 -35.5t48.5 -13.5zM1212 -12q-56 0 -100.5 26.5t-70.5 70.5t-26 98t26 98.5t70.5 70.5t100.5 26q55 0 99 -26t70 -70.5t26 -98.5t-26 -98t-70 -70.5t-99 -26.5zM1212 89q29 0 49 13.5t30.5 35t10.5 45.5 q0 25 -10.5 46t-30.5 35t-49 14q-28 0 -49 -14t-32 -35.5t-11 -45.5q0 -23 11 -45t32 -35.5t49 -13.5z"></glyph>
      <glyph glyph-name="minute" unicode="′" d="M131 462v283h118l-16 -283h-102z"></glyph>
      <glyph glyph-name="second" unicode="″" d="M131 462v283h118l-16 -283h-102zM318 462v283h117l-15 -283h-102z"></glyph>
      <glyph glyph-name="guilsinglleft" unicode="‹" d="M198 72l-153 197l153 198h145l-152 -198l152 -197h-145z"></glyph>
      <glyph glyph-name="guilsinglright" unicode="›" d="M46 72l152 197l-152 198h144l154 -198l-154 -197h-144z"></glyph>
      <glyph glyph-name="fraction" unicode="⁄" d="M-169 0l446 745h93l-446 -745h-93z"></glyph>
      <glyph glyph-name="uni2070" unicode="⁰" d="M239 215q-62 0 -109.5 34.5t-74 95t-26.5 140.5t26.5 141t73.5 94.5t110 33.5q64 0 110.5 -33.5t73 -94.5t26.5 -141t-26.5 -141t-73 -95t-110.5 -34zM239 314q32 0 55.5 21t35 59t11.5 91t-11.5 91.5t-35 58.5t-56.5 20q-31 0 -53.5 -20t-34.5 -58t-12 -92 q0 -52 12 -90.5t34.5 -59.5t54.5 -21z"></glyph>
      <glyph glyph-name="uni2074" unicode="⁴" d="M262 224v112h-232v92l224 317h116v-318h80v-91h-80v-112h-108zM109 388l-21 39h174v234l27 -8z"></glyph>
      <glyph glyph-name="uni2075" unicode="⁵" d="M208 215q-41 0 -79 15.5t-65.5 44.5t-36.5 69l96 32q11 -32 34 -47t51 -15q35 0 58 22t23 59q0 25 -10 42.5t-28 28.5t-43 11q-22 0 -43 -10.5t-30 -33.5l-89 21l43 291h290v-90h-247l41 49l-29 -217l-30 25q18 29 45.5 42t69.5 13q52 0 89.5 -21.5t58.5 -60.5t21 -90 t-24.5 -91.5t-67.5 -64.5t-98 -24z"></glyph>
      <glyph glyph-name="uni2076" unicode="⁶" d="M211 215q-54 0 -96 23t-66 62.5t-24 88.5q0 42 15 80.5t53 87.5l145 188h130l-175 -222l-17 23q15 6 26.5 9.5t27.5 3.5q48 0 85.5 -22t59 -59.5t21.5 -83.5q0 -52 -24 -92t-65.5 -63.5t-95.5 -23.5zM211 314q31 0 53.5 21.5t22.5 56.5t-22.5 56t-53.5 21 q-32 0 -54.5 -21t-22.5 -56t22.5 -56.5t54.5 -21.5z"></glyph>
      <glyph glyph-name="uni2077" unicode="⁷" d="M45 224l211 431h-241v91h355v-91l-204 -431h-121z"></glyph>
      <glyph glyph-name="uni2078" unicode="⁸" d="M223 215q-58 0 -100 22.5t-65 58.5t-23 78q0 52 27 86t80 52l-8 -27q-37 12 -58.5 47t-21.5 77t22 74.5t60 51.5t87 19q50 0 88.5 -18.5t60.5 -51t22 -75.5q0 -42 -22 -77t-60 -47l-6 27q53 -19 80 -53.5t27 -84.5q0 -42 -23 -78.5t-65.5 -58.5t-101.5 -22zM223 307 q36 0 59 20t23 51q0 32 -22.5 51t-59.5 19q-35 0 -57 -19t-22 -51q0 -31 22 -51t57 -20zM223 540q28 0 45 18t17 43q0 26 -17 44t-45 18q-27 0 -44.5 -18t-17.5 -44q0 -25 17.5 -43t44.5 -18z"></glyph>
      <glyph glyph-name="uni2079" unicode="⁹" d="M53 224l175 223l17 -23q-18 -7 -31 -10t-30 -3q-45 0 -81 22t-57 59.5t-21 83.5q0 52 24 92t66 63t96 23t95.5 -23t65.5 -62t24 -88q0 -38 -12.5 -76.5t-54.5 -92.5l-146 -188h-130zM211 500q32 0 54 21.5t22 55.5q0 35 -22 57t-54 22t-54.5 -22t-22.5 -57 q0 -34 22.5 -55.5t54.5 -21.5z"></glyph>
      <glyph glyph-name="uni207A" unicode="⁺" d="M211 308v132h-131v88h131v130h88v-130h131v-88h-131v-132h-88z"></glyph>
      <glyph glyph-name="uni207B" unicode="⁻" d="M105 440v88h315v-88h-315z"></glyph>
      <glyph glyph-name="uni207C" unicode="⁼" d="M105 512v88h315v-88h-315zM105 340v89h315v-89h-315z"></glyph>
      <glyph glyph-name="uni207D" unicode="⁽" d="M184 98q-58 69 -89 149.5t-31 173.5q0 94 30 174.5t90 149.5h87q-49 -78 -73.5 -158.5t-24.5 -165.5t24.5 -166.5t73.5 -156.5h-87z"></glyph>
      <glyph glyph-name="uni207E" unicode="⁾" d="M37 98q49 76 73.5 157.5t24.5 165.5q0 88 -25 168.5t-73 155.5h86q61 -70 91 -151.5t30 -172.5q0 -88 -29 -169.5t-92 -153.5h-86z"></glyph>
      <glyph glyph-name="uni2080" unicode="₀" d="M239 -9q-62 0 -109.5 34.5t-74 95t-26.5 140.5t26.5 141t73.5 94.5t110 33.5q64 0 110.5 -33.5t73 -94.5t26.5 -141t-26.5 -141t-73 -95t-110.5 -34zM239 90q32 0 55.5 21t35 59t11.5 91t-11.5 91.5t-35 58.5t-56.5 20q-31 0 -53.5 -20t-34.5 -58t-12 -92q0 -52 12 -90.5 t34.5 -59.5t54.5 -21z"></glyph>
      <glyph glyph-name="uni2081" unicode="₁" d="M117 0v430h-101v91h210v-521h-109z"></glyph>
      <glyph glyph-name="uni2082" unicode="₂" d="M23 0v84l141 145q36 39 58 63.5t31.5 42.5t9.5 35q0 29 -18.5 45.5t-46.5 16.5t-50.5 -16.5t-32.5 -49.5l-95 30q9 42 35.5 72t64.5 46t78 16q52 0 91.5 -18.5t61 -51.5t21.5 -77q0 -46 -24.5 -85t-66.5 -83l-119 -123h216v-92h-355z"></glyph>
      <glyph glyph-name="uni2083" unicode="₃" d="M202 -9q-43 0 -82.5 16.5t-66.5 46.5t-37 69l95 33q13 -33 36.5 -49.5t54.5 -16.5q38 0 60.5 21t22.5 58q0 35 -22 56t-61 21q-33 0 -59 -13l-25 52l133 146h-202v90h324v-84l-136 -154l3 42q47 0 81.5 -19t53.5 -54t19 -80q0 -51 -25 -92t-68.5 -65t-98.5 -24z"></glyph>
      <glyph glyph-name="uni2084" unicode="₄" d="M262 0v112h-232v92l224 317h116v-318h80v-91h-80v-112h-108zM109 164l-21 39h174v234l27 -8z"></glyph>
      <glyph glyph-name="uni2085" unicode="₅" d="M208 -9q-41 0 -79 15.5t-65.5 44.5t-36.5 69l96 32q11 -32 34 -47t51 -15q35 0 58 22t23 59q0 25 -10 42.5t-28 28.5t-43 11q-22 0 -43 -10.5t-30 -33.5l-89 21l43 291h290v-90h-247l41 49l-29 -217l-30 25q18 29 45.5 42t69.5 13q52 0 89.5 -21.5t58.5 -60.5t21 -90 t-24.5 -91.5t-67.5 -64.5t-98 -24z"></glyph>
      <glyph glyph-name="uni2086" unicode="₆" d="M211 -9q-54 0 -96 23t-66 62.5t-24 88.5q0 42 15 80.5t53 87.5l145 188h130l-175 -222l-17 23q15 6 26.5 9.5t27.5 3.5q48 0 85.5 -22t59 -59.5t21.5 -83.5q0 -52 -24 -92t-65.5 -63.5t-95.5 -23.5zM211 90q31 0 53.5 21.5t22.5 56.5t-22.5 56t-53.5 21q-32 0 -54.5 -21 t-22.5 -56t22.5 -56.5t54.5 -21.5z"></glyph>
      <glyph glyph-name="uni2087" unicode="₇" d="M45 0l211 431h-241v91h355v-91l-204 -431h-121z"></glyph>
      <glyph glyph-name="uni2088" unicode="₈" d="M223 -9q-58 0 -100 22.5t-65 58.5t-23 78q0 52 27 86t80 52l-8 -27q-37 12 -58.5 47t-21.5 77t22 74.5t60 51.5t87 19q50 0 88.5 -18.5t60.5 -51t22 -75.5q0 -42 -22 -77t-60 -47l-6 27q53 -19 80 -53.5t27 -84.5q0 -42 -23 -78.5t-65.5 -58.5t-101.5 -22zM223 83 q36 0 59 20t23 51q0 32 -22.5 51t-59.5 19q-35 0 -57 -19t-22 -51q0 -31 22 -51t57 -20zM223 316q28 0 45 18t17 43q0 26 -17 44t-45 18q-27 0 -44.5 -18t-17.5 -44q0 -25 17.5 -43t44.5 -18z"></glyph>
      <glyph glyph-name="uni2089" unicode="₉" d="M53 0l175 223l17 -23q-18 -7 -31 -10t-30 -3q-45 0 -81 22t-57 59.5t-21 83.5q0 52 24 92t66 63t96 23t95.5 -23t65.5 -62t24 -88q0 -38 -12.5 -76.5t-54.5 -92.5l-146 -188h-130zM211 276q32 0 54 21.5t22 55.5q0 35 -22 57t-54 22t-54.5 -22t-22.5 -57 q0 -34 22.5 -55.5t54.5 -21.5z"></glyph>
      <glyph glyph-name="uni208A" unicode="₊" d="M211 85v132h-131v88h131v130h88v-130h131v-88h-131v-132h-88z"></glyph>
      <glyph glyph-name="uni208B" unicode="₋" d="M105 217v88h315v-88h-315z"></glyph>
      <glyph glyph-name="uni208C" unicode="₌" d="M105 289v88h315v-88h-315zM105 117v89h315v-89h-315z"></glyph>
      <glyph glyph-name="uni208D" unicode="₍" d="M184 -125q-58 69 -89 149.5t-31 173.5q0 94 30 174.5t90 149.5h87q-49 -78 -73.5 -158.5t-24.5 -165.5t24.5 -166.5t73.5 -156.5h-87z"></glyph>
      <glyph glyph-name="uni208E" unicode="₎" d="M37 -125q49 76 73.5 157.5t24.5 165.5q0 88 -25 168.5t-73 155.5h86q61 -70 91 -151.5t30 -172.5q0 -88 -29 -169.5t-92 -153.5h-86z"></glyph>
      <glyph glyph-name="colonmonetary" unicode="₡" d="M422 -12q-80 0 -147.5 29t-118 81t-78.5 122t-28 153t27.5 153.5t78 122t118.5 80t148 28.5t143.5 -27t107.5 -71.5t63 -97.5l-122 -57q-21 56 -71 92.5t-121 36.5q-70 0 -123.5 -33t-83 -91t-29.5 -136t29.5 -136.5t83 -91.5t123.5 -33q71 0 121 36.5t71 92.5l122 -57 q-19 -53 -63 -97.5t-107.5 -71.5t-143.5 -27zM232 -100l132 945h85l-132 -945h-85zM364 -100l132 945h85l-132 -945h-85z"></glyph>
      <glyph glyph-name="franc" unicode="₣" d="M116 0v745h497v-120h-361v-206h316v-120h-316v-299h-136zM36 108v83h416v-83h-416z"></glyph>
      <glyph glyph-name="lira" unicode="₤" d="M36 0v115h100v399q0 73 30.5 127.5t87 85t133.5 30.5q61 0 112.5 -23t86.5 -64.5t42 -98.5l-120 -37q-7 50 -40.5 75.5t-80.5 25.5q-55 0 -85 -31.5t-30 -89.5v-399h323v-115h-559zM36 403v84h420v-84h-420zM36 259v84h420v-84h-420z"></glyph>
      <glyph glyph-name="uni20A6" unicode="₦" d="M116 0v745h168l281 -679l-42 -12v691h131v-745h-170l-276 684l39 11v-695h-131zM36 331v84h698v-84h-698z"></glyph>
      <glyph glyph-name="peseta" unicode="₧" d="M116 0v745h278q76 0 134.5 -27.5t91.5 -80t33 -127.5q0 -74 -33.5 -126.5t-91.5 -80.5t-134 -28h-142v-275h-136zM252 395h144q37 0 64 14.5t42 40.5t15 60q0 35 -15 60.5t-42 40t-64 14.5h-144v-230zM36 469v83h677v-83h-677z"></glyph>
      <glyph glyph-name="uni20A8" unicode="₨" d="M72 0v745h277q76 0 134.5 -27.5t91.5 -80t33 -127.5q0 -77 -36.5 -131t-98.5 -80l171 -299h-154l-183 327l88 -52h-187v-275h-136zM208 395h143q37 0 64 14.5t42 40.5t15 60q0 35 -15 60.5t-42 40t-64 14.5h-143v-230zM929 -12q-87 0 -151.5 41.5t-88.5 112.5l98 47 q21 -46 58.5 -72t83.5 -26q36 0 57 16t21 42q0 16 -8.5 26.5t-23 18t-31.5 12.5l-89 25q-69 20 -104.5 61t-35.5 97q0 50 25.5 87.5t71 58.5t104.5 21q77 0 136 -37t84 -104l-100 -47q-14 37 -47 59t-74 22q-33 0 -52 -15t-19 -39q0 -15 8 -26t22.5 -18t33.5 -13l87 -26 q67 -20 103.5 -60t36.5 -98q0 -49 -26 -86.5t-72 -58.5t-108 -21z"></glyph>
      <glyph glyph-name="uni20A9" unicode="₩" d="M180 0l-130 745h135l95 -702h-38l155 702h132l156 -702h-39l95 702h135l-130 -745h-152l-149 685h36l-149 -685h-152zM11 331v84h903v-84h-903z"></glyph>
      <glyph glyph-name="uni20AA" unicode="₪" d="M238 0v578h73v-445h122q9 0 14 5t5 14v593h132v-610q0 -60 -37.5 -97.5t-97.5 -37.5h-211zM72 0v745h211q61 0 98 -37.5t37 -97.5v-443h-73v426q0 9 -5 14t-13 5h-123v-612h-132z"></glyph>
      <glyph glyph-name="dong" unicode="₫" d="M262 139q-64 0 -114.5 31t-79.5 82.5t-29 114.5q0 64 29.5 116t80 82.5t113.5 30.5q48 0 84.5 -17t58.5 -50l-19 -24v240h124v-596h-116v79l11 -26q-24 -31 -62.5 -47t-80.5 -16zM275 249q33 0 58 15t39 41.5t14 61.5t-14 61.5t-39 41.5t-58 15q-32 0 -57 -15t-39 -41.5 t-14 -61.5t14 -61.5t39 -41.5t57 -15zM39 0v82h489v-82h-489zM326 623v81h244v-81h-244z"></glyph>
      <glyph glyph-name="Euro" unicode="€" d="M445 -12q-73 0 -135 28t-107.5 79.5t-70.5 122t-25 155.5t24.5 155t70 121.5t107.5 79.5t137 28q101 0 178 -52.5t107 -143.5l-123 -47q-20 57 -63 89t-100 32q-58 0 -104 -34t-72 -92.5t-26 -135.5t25.5 -136.5t71 -92.5t105.5 -33q57 0 100 32t63 88l123 -47 q-20 -61 -61.5 -104.5t-99 -67.5t-125.5 -24zM25 259v84h445v-84h-445zM25 403v84h445v-84h-445z"></glyph>
      <glyph glyph-name="uni20AD" unicode="₭" d="M546 0l-256 341l6 65l218 339h162l-239 -371l276 -374h-167zM116 0v745h136v-745h-136zM36 331v84h640v-84h-640z"></glyph>
      <glyph glyph-name="uni20AE" unicode="₮" d="M205 0v625h-194v120h521v-120h-191v-625h-136zM57 312v99l429 125v-99zM57 133v99l429 125v-99z"></glyph>
      <glyph glyph-name="uni20B1" unicode="₱" d="M116 0v745h278q76 0 134.5 -27.5t91.5 -80t33 -127.5q0 -74 -33.5 -126.5t-91.5 -80.5t-134 -28h-142v-275h-136zM252 395h144q37 0 64 14.5t42 40.5t15 60q0 35 -15 60.5t-42 40t-64 14.5h-144v-230zM36 429v61h677v-61h-677zM36 530v62h677v-62h-677z"></glyph>
      </font>
</defs>
</svg>
